• Игры для PS4
  • Игры для PS3
  • Игры для XBOX360
  • Игры для PC
  • Игры для PS2
  • Игры для PSP
  • Для телефонов
  • Музыка
  • Книги / Журналы
  • Обои
  • Опрос
    Удобен ли сайт в использовании?
      0
    • Очень удобен, все понятно1,1,false,300,full
    • Удобен1,2,false,300,full
    • Средне1,3,false,300,full
    • Неудобен, трудно ориентироваться1,4,false,300,full
    • Совсем неудобен1,5,false,300,full
    Статистика
    Всего онлайн -
    Гостей -
    Пользователей -
    Короли трекера
    Благодарности () Закрыть
    Информация о фильме
    Название: Конная полиция
    Год выпуска: 2018
    Страна: Россия
    Жанр: комедия

    Перевод: Не требуется [Русский]
    Продолжительность: 00:22:31

    Режиссер: Артем Лемперт , Павел Орешин
    В ролях: Артур Смольянинов (Сергей Волков), Наталия Медведева (Эльвира), Борис Дергачев (Макс), Стася Милославская (Настя), Алексей Симонов (Вячеслав Михайлович Кондратьев), Артем Костюнёв (Иван Кутепов), Артем Гайдуков, Юрий Ицков, Александр Тютрюмов, Анна Галинова, Вилен Бабичев (дебошир), Сергей Тишин (начальник поезда)

    Описание:
    Все хорошие полицейские попадают на Рублёвку. Совсем скоро они узнают, что все плохиши, вроде главного героя - опера Сергея Волкова, пополняют ряды конной полиции. Но оказался он в «ментаврах» не из-за страсти к верховой езде или большой любви к лошадям, а потому что серьезно нарушил закон...

    Рейтинг:
    [img]https://u.myshows.me/r/58775.png[/img]

    Качество: HDTV 1080p Запись с[img]http://i4.imageban.ru/out/2018/08/27/e730d4bb9d5973f35318eaaf998582f9.png[/img]
    Формат: MKV
    Видео: AVC, 1920x1080 (16:9), 7050 kbps, 25 fps, 0,136 bpp
    Аудио: AC3 / 2.0 / 48 kHz / 192 kbps /

    ОтчетМедиаИнфо

    General
    Unique ID                                : 215274406069625777079873705300010513753 (0xA1F457AD7CEE44E69D950E8ED1FCB559)
    Complete name                            : E:Запись с твKonnaya policiya 2018.HDTV 1080p.R.G.GeneralfilmKonnaya policiya.s01.e02.2018.HDTV 1080p.by.White Smoke.R.G.Generalfilm.mkv
    Format                                   : Matroska
    Format version                           : Version 4 / Version 2
    File size                                : 1.14 GiB
    Duration                                 : 22 min
    Overall bit rate mode                    : Constant
    Overall bit rate                         : 7 235 kb/s
    Movie name                               : Konnaya policiya.s01.e02.2018.HDTV 1080p.by.White Smoke.R.G.Generalfilm.mkv
    Encoded date                             : UTC 2018-10-08 20:47:14
    Writing application                      : mkvmerge v6.8.0 ("Theme for Great Cities") 64bit built on Mar  2 2014 21:34:26
    Writing library                          : libebml v1.3.0 + libmatroska v1.4.1
    Cover                                    : Yes
    Attachments                              : cover.jpg

    Video
    ID                                       : 1
    Format                                   : AVC
    Format/Info                              : Advanced Video Codec
    Format profile                           : High@L4.1
    Format settings, CABAC                   : Yes
    Format settings, ReFrames                : 3 frames
    Codec ID                                 : V_MPEG4/ISO/AVC
    Duration                                 : 22 min
    Bit rate mode                            : Constant
    Bit rate                                 : 7 051 kb/s
    Width                                    : 1 920 pixels
    Height                                   : 1 080 pixels
    Display aspect ratio                     : 16:9
    Frame rate mode                          : Constant
    Frame rate                               : 25.000 FPS
    Standard                                 : PAL
    Color space                              : YUV
    Chroma subsampling                       : 4:2:0
    Bit depth                                : 8 bits
    Scan type                                : Progressive
    Bits/(Pixel*Frame)                       : 0.136
    Stream size                              : 1.09 GiB (95%)
    Default                                  : Yes
    Forced                                   : No
    Color range                              : Limited
    Color primaries                          : BT.709
    Transfer characteristics                 : BT.709
    Matrix coefficients                      : BT.709

    Audio
    ID                                       : 2
    Format                                   : AC-3
    Format/Info                              : Audio Coding 3
    Mode extension                           : CM (complete main)
    Format settings, Endianness              : Big
    Codec ID                                 : A_AC3
    Duration                                 : 22 min
    Bit rate mode                            : Constant
    Bit rate                                 : 192 kb/s
    Channel(s)                               : 2 channels
    Channel positions                        : Front: L R
    Sampling rate                            : 48.0 kHz
    Frame rate                               : 31.250 FPS (1536 spf)
    Compression mode                         : Lossy
    Stream size                              : 30.9 MiB (3%)
    Default                                  : Yes
    Forced                                   : No
    Свернуть


    Похожие раздачи Искать похожие
    Инструкция по скачиванию
     1  Качаем uTorrent версии 2.0 и выше
     2  После установки, жмем выше под постером на ссылку Скачать [MediaGet] или Скачать .torrent
     3  Открываем скачанный файл через соответствующий клиент: MediaGet или uTorrent
     4  Ждем пока подключатся участники
     5  Качаем
    Комментарии о  Конная полиция [Серии 01-02 из 16] | HDTV 1080p 
    Ближайшее в кино
    Вверх