• Игры для PS4
  • Игры для PS3
  • Игры для XBOX360
  • Игры для PC
  • Игры для PS2
  • Игры для PSP
  • Для телефонов
  • Музыка
  • Книги/Журналы
  • Обои
  •  
    Опрос
    Удобен ли сайт в использовании?
      0
    • Очень удобен, все понятно1,1,false,300,full
    • Удобен1,2,false,300,full
    • Средне1,3,false,300,full
    • Неудобен, трудно ориентироваться1,4,false,300,full
    • Совсем неудобен1,5,false,300,full
    Статистика
    Загрузка...
    Конная полиция [Серии 01-02 из 16] | HDTV 1080p
    Статус  Проверено
    В закладки
    Модератор: Max

    Конная полиция [Серии 01-02 из 16] | HDTV 1080p [Сериалы 2018] скачать торрентом/torrent бесплатно

    Год выхода
    Категории
    Язык
    Закачал
    Аноним | 09 октября в 09ч 48м 13с
    Раздел
    Отзывов
    0
    Раздают: 13 Качают: 8 Скачали: 445 Размер: 2.19 GB
    Инфо о раздаче | Благодарности |
    0/5
    0
    0 5 0
    Поддержи нас — расскажи друзьям!
    Orbitum
    Новый интернет-браузер Быстрее загружает сайты Экономит интернет—трафик Меняет оформление страницы ВК Блокирует всю рекламу на сайтах Загружает торренты как

    µTorrent

    клиент
    Объеденяет все твои чаты из соц. сетей в один Проигрывает твою музыку не заходя во ВКонтакте
    Скачать и многое другое... Подробности на сайте производителя
    Информация о фильме
    Название: Конная полиция
    Год выпуска: 2018
    Страна: Россия
    Жанр: комедия

    Перевод: Не требуется [Русский]
    Продолжительность: 00:22:31

    Режиссер: Артем Лемперт , Павел Орешин
    В ролях: Артур Смольянинов (Сергей Волков), Наталия Медведева (Эльвира), Борис Дергачев (Макс), Стася Милославская (Настя), Алексей Симонов (Вячеслав Михайлович Кондратьев), Артем Костюнёв (Иван Кутепов), Артем Гайдуков, Юрий Ицков, Александр Тютрюмов, Анна Галинова, Вилен Бабичев (дебошир), Сергей Тишин (начальник поезда)

    Описание:
    Все хорошие полицейские попадают на Рублёвку. Совсем скоро они узнают, что все плохиши, вроде главного героя - опера Сергея Волкова, пополняют ряды конной полиции. Но оказался он в «ментаврах» не из-за страсти к верховой езде или большой любви к лошадям, а потому что серьезно нарушил закон...

    Рейтинг:
    [img]https://u.myshows.me/r/58775.png[/img]

    Качество: HDTV 1080p Запись с[img]http://i4.imageban.ru/out/2018/08/27/e730d4bb9d5973f35318eaaf998582f9.png[/img]
    Формат: MKV
    Видео: AVC, 1920x1080 (16:9), 7050 kbps, 25 fps, 0,136 bpp
    Аудио: AC3 / 2.0 / 48 kHz / 192 kbps /

    ОтчетМедиаИнфо

    General
    Unique ID                                : 215274406069625777079873705300010513753 (0xA1F457AD7CEE44E69D950E8ED1FCB559)
    Complete name                            : E:Запись с твKonnaya policiya 2018.HDTV 1080p.R.G.GeneralfilmKonnaya policiya.s01.e02.2018.HDTV 1080p.by.White Smoke.R.G.Generalfilm.mkv
    Format                                   : Matroska
    Format version                           : Version 4 / Version 2
    File size                                : 1.14 GiB
    Duration                                 : 22 min
    Overall bit rate mode                    : Constant
    Overall bit rate                         : 7 235 kb/s
    Movie name                               : Konnaya policiya.s01.e02.2018.HDTV 1080p.by.White Smoke.R.G.Generalfilm.mkv
    Encoded date                             : UTC 2018-10-08 20:47:14
    Writing application                      : mkvmerge v6.8.0 ("Theme for Great Cities") 64bit built on Mar  2 2014 21:34:26
    Writing library                          : libebml v1.3.0 + libmatroska v1.4.1
    Cover                                    : Yes
    Attachments                              : cover.jpg

    Video
    ID                                       : 1
    Format                                   : AVC
    Format/Info                              : Advanced Video Codec
    Format profile                           : High@L4.1
    Format settings, CABAC                   : Yes
    Format settings, ReFrames                : 3 frames
    Codec ID                                 : V_MPEG4/ISO/AVC
    Duration                                 : 22 min
    Bit rate mode                            : Constant
    Bit rate                                 : 7 051 kb/s
    Width                                    : 1 920 pixels
    Height                                   : 1 080 pixels
    Display aspect ratio                     : 16:9
    Frame rate mode                          : Constant
    Frame rate                               : 25.000 FPS
    Standard                                 : PAL
    Color space                              : YUV
    Chroma subsampling                       : 4:2:0
    Bit depth                                : 8 bits
    Scan type                                : Progressive
    Bits/(Pixel*Frame)                       : 0.136
    Stream size                              : 1.09 GiB (95%)
    Default                                  : Yes
    Forced                                   : No
    Color range                              : Limited
    Color primaries                          : BT.709
    Transfer characteristics                 : BT.709
    Matrix coefficients                      : BT.709

    Audio
    ID                                       : 2
    Format                                   : AC-3
    Format/Info                              : Audio Coding 3
    Mode extension                           : CM (complete main)
    Format settings, Endianness              : Big
    Codec ID                                 : A_AC3
    Duration                                 : 22 min
    Bit rate mode                            : Constant
    Bit rate                                 : 192 kb/s
    Channel(s)                               : 2 channels
    Channel positions                        : Front: L R
    Sampling rate                            : 48.0 kHz
    Frame rate                               : 31.250 FPS (1536 spf)
    Compression mode                         : Lossy
    Stream size                              : 30.9 MiB (3%)
    Default                                  : Yes
    Forced                                   : No


    Еще похожие »

    Как скачать?
    1. Качаем UTorrent версии 2.0 и выше отсюда
    2. После установки, жмем на ссылку Скачать торрент.
    3. Открываем его через utorrent.
    4. Ждем пока подключатся участники.
    5. Качаем.


    Комментарии о Конная полиция [Серии 01-02 из 16] | HDTV 1080p
    Добавлять комментарии могут только зарегистрированные пользователи

    Зарегистрироваться или Войти


    Ближайшее в кино
    • Примадонна дата выхода 18 октября 2018Примадонна
      Дата выхода: 18 октября 2018
    • 885317|Ученик чудовища|18 октября 2018|200|300Ученик чудовища
      Дата выхода: 18 октября 2018
    • 472369|Хэллоуин|18 октября 2018|200|300Хэллоуин
      Дата выхода: 18 октября 2018
    • 1005852|Дикая жизнь|18 октября 2018|200|300Дикая жизнь
      Дата выхода: 18 октября 2018
    • 696499|Галвестон|18 октября 2018|200|300Галвестон
      Дата выхода: 18 октября 2018
    • 1111886|Лукас|18 октября 2018|200|300Лукас
      Дата выхода: 18 октября 2018
    • 1045555|Вечная жизнь Александра Христофорова|18 октября 2018|200|300Вечная жизнь Александра Христофорова
      Дата выхода: 18 октября 2018
    • 1112943|Шестой пост|18 октября 2018|200|300Шестой пост
      Дата выхода: 18 октября 2018
    • 1044626|Тайна магазина игрушек|18 октября 2018|200|300Тайна магазина игрушек
      Дата выхода: 18 октября 2018
    • 629086|Лягушонок Риббит|18 октября 2018|200|300Лягушонок Риббит
      Дата выхода: 18 октября 2018
    • 991817|Закат|18 октября 2018|200|300Закат
      Дата выхода: 18 октября 2018
    • 1020860|Безупречная жизнь|18 октября 2018|200|300Безупречная жизнь
      Дата выхода: 18 октября 2018
    • 968603|Зимние братья|18 октября 2018|200|300Зимние братья
      Дата выхода: 18 октября 2018
    • 1008554|Слоны могут играть в футбол|18 октября 2018|200|300Слоны могут играть в футбол
      Дата выхода: 18 октября 2018
    • 939290|Прогулка по Риму|18 октября 2018|200|300Прогулка по Риму
      Дата выхода: 18 октября 2018
    Вверх