• Игры для PS4
  • Игры для PS3
  • Игры для XBOX360
  • Игры для PC
  • Игры для PS2
  • Игры для PSP
  • Для телефонов
  • Музыка
  • Книги / Журналы
  • Обои
  • Опрос
    Откуда Вы о нас узнали?
      0
    • От знакомых2,1,false,300,full
    • Из социальных сетей2,2,false,300,full
    • Из поисковых систем2,3,false,300,full
    • Другое2,4,false,300,full
    Статистика
    Всего онлайн -
    Гостей -
    Пользователей -
    Короли трекера
    Благодарности () Закрыть
    Страна: Япония
    Год выпуска: 2018
    Жанр:  приключения, фэнтези
    Тип: TV
    Продолжительность: (>25 эп.), 00:24:00 мин.
    Режиссер: Исихира Синдзи
    Студия: A-1 Pictures Inc. Bridge

    Описание:
    Прошёл год с тех пор, как Макаров объявил о роспуске Хвоста феи. Все члены гильдии разошлись по миру. Люси всерьёз занялась журналистикой в столице. Но скуку её новой жизни развеял Нацу, неожиданно заявившийся на Великие магические игры. Теперь они вместе отправились на поиски остальных участников легендарной гильдии.

    Доп. информация:
    Релиз GSGroup
    [img]http://i053.radikal.ru/1604/64/a35e706ef334.gif[/img]

    Качество: WEBRip
    Тип релиза: Без хардсаба
    Формат видео: MP4
    Видео: x264, 1280x720, 23.976 fps, ~2238 Kbps, 8 bits
    Аудио 1: AAC, 128 Kbps, 44.1 KHz, 2 channels Язык Русский (в составе контейнера) ; Озвучка: Любительский одноголосый (Persona99)
    Аудио 2: AAC, 128 Kbps, 44.1 KHz, 2 channels Язык Японский ; Озвучка 2: оригинал
    Субтитры: внешние srt, ass Язык субтитров русский ; Перевод: risens team
    Подробные тех. данные

    General
    Complete name                            : E:Anime_EFairy Tail TV3 (2018) 720Fairy Tail [TV-3] - 01 [Persona99](1280x720 x264 AAC).rus.jpn.mp4
    Format                                   : MPEG-4
    Format profile                           : Base Media
    Codec ID                                 : isom
    File size                                : 426 MiB
    Duration                                 : 23mn 52s
    Overall bit rate mode                    : Variable
    Overall bit rate                         : 2 495 Kbps
    Encoded date                             : UTC 2018-10-08 03:06:44
    Tagged date                              : UTC 2018-10-08 03:06:44
    Writing application                      : Yamb 2.1.0.0 [http://yamb.unite-video.com]

    Video
    ID                                       : 1
    Format                                   : AVC
    Format/Info                              : Advanced Video Codec
    Format profile                           : High@L4
    Format settings, CABAC                   : Yes
    Format settings, ReFrames                : 6 frames
    Codec ID                                 : avc1
    Codec ID/Info                            : Advanced Video Coding
    Duration                                 : 23mn 50s
    Bit rate                                 : 2 238 Kbps
    Maximum bit rate                         : 6 750 Kbps
    Width                                    : 1 280 pixels
    Height                                   : 720 pixels
    Display aspect ratio                     : 16:9
    Frame rate mode                          : Constant
    Frame rate                               : 23.976 fps
    Color space                              : YUV
    Chroma subsampling                       : 4:2:0
    Bit depth                                : 8 bits
    Scan type                                : Progressive
    Bits/(Pixel*Frame)                       : 0.101
    Stream size                              : 381 MiB (90%)
    Writing library                          : x264 core 142
    Encoding settings                        : cabac=1 / ref=6 / deblock=1:1:1 / analyse=0x3:0x113 / me=umh / subme=8 / psy=1 / psy_rd=0.40:0.00 / mixed_ref=1 / me_range=16 / chroma_me=1 / trellis=1 / 8x8dct=1 / cqm=0 / deadzone=21,11 / fast_pskip=1 / chroma_qp_offset=-2 / threads=10 / lookahead_threads=1 / sliced_threads=0 / nr=0 / decimate=1 / interlaced=0 / bluray_compat=0 / constrained_intra=0 / bframes=3 / b_pyramid=2 / b_adapt=2 / b_bias=0 / direct=3 / weightb=1 / open_gop=0 / weightp=2 / keyint=48 / keyint_min=25 / scenecut=0 / intra_refresh=0 / rc_lookahead=48 / rc=crf / mbtree=1 / crf=15.0 / qcomp=0.60 / qpmin=0 / qpmax=69 / qpstep=4 / vbv_maxrate=4000 / vbv_bufsize=6000 / crf_max=0.0 / nal_hrd=none / filler=0 / ip_ratio=1.40 / aq=1:0.60
    Encoded date                             : UTC 2018-10-07 12:35:29
    Tagged date                              : UTC 2018-10-08 03:06:50

    Audio #1
    ID                                       : 2
    Format                                   : AAC
    Format/Info                              : Advanced Audio Codec
    Format profile                           : LC
    Codec ID                                 : 40
    Duration                                 : 23mn 50s
    Bit rate mode                            : Variable
    Bit rate                                 : 128 Kbps
    Maximum bit rate                         : 140 Kbps
    Channel(s)                               : 2 channels
    Channel positions                        : Front: L R
    Sampling rate                            : 44.1 KHz
    Compression mode                         : Lossy
    Stream size                              : 21.8 MiB (5%)
    Language                                 : Japanese
    Encoded date                             : UTC 2018-10-08 03:06:48
    Tagged date                              : UTC 2018-10-08 03:06:50

    Audio #2
    ID                                       : 3
    Format                                   : AAC
    Format/Info                              : Advanced Audio Codec
    Format profile                           : HE-AAC / LC
    Codec ID                                 : 40
    Duration                                 : 23mn 52s
    Bit rate mode                            : Variable
    Bit rate                                 : 128 Kbps
    Maximum bit rate                         : 137 Kbps
    Channel(s)                               : 2 channels
    Channel positions                        : Front: L R
    Sampling rate                            : 44.1 KHz / 22.05 KHz
    Compression mode                         : Lossy
    Stream size                              : 21.9 MiB (5%)
    Title                                    : Persona99
    Language                                 : Russian
    Encoded date                             : UTC 2018-10-08 03:06:49
    Tagged date                              : UTC 2018-10-08 03:06:50
    Свернуть


    Список эпизодов

    01. The Lamia Scale Thanksgiving Festival
    Свернуть




    Семпл:
    Похожие раздачи Искать похожие
    Инструкция по скачиванию
     1  Качаем uTorrent версии 2.0 и выше
     2  После установки, жмем выше под постером на ссылку Скачать [MediaGet] или Скачать .torrent
     3  Открываем скачанный файл через соответствующий клиент: MediaGet или uTorrent
     4  Ждем пока подключатся участники
     5  Качаем
    Комментарии о  Сказка о хвосте феи / Fairy Tail [Сезон 03 | 01 серия из 25] | WEBRip 720p 
    Ближайшее в кино
    Вверх