• Игры для PS4
  • Игры для PS3
  • Игры для XBOX360
  • Игры для PC
  • Игры для PS2
  • Игры для PSP
  • Для телефонов
  • Музыка
  • Книги / Журналы
  • Обои
  • Опрос
    Удобен ли сайт в использовании?
      0
    • Очень удобен, все понятно1,1,false,300,full
    • Удобен1,2,false,300,full
    • Средне1,3,false,300,full
    • Неудобен, трудно ориентироваться1,4,false,300,full
    • Совсем неудобен1,5,false,300,full
    Статистика
    Всего онлайн -
    Гостей -
    Пользователей -
    Короли трекера
    Благодарности () Закрыть
    Страна: Япония
    Год выпуска: 2018
    Жанр:  приключения, фэнтези
    Тип: TV
    Продолжительность: ТВ (>25 эп.), 00:24:00
    Режиссер: Исихира Синдзи
    Студия: A-1 Pictures Inc. Bridge

    Описание:
    Прошёл год с тех пор, как Макаров объявил о роспуске Хвоста феи. Все члены гильдии разошлись по миру. Люси всерьёз занялась журналистикой в столице. Но скуку её новой жизни развеял Нацу, неожиданно заявившийся на Великие магические игры. Теперь они вместе отправились на поиски остальных участников легендарной гильдии.

    Доп. информация:
    Релиз GSGroup
    [img]http://i053.radikal.ru/1604/64/a35e706ef334.gif[/img]

    Серия состоит из:

    #1 Фейри Тейл [ТВ-1] - ТВ (175 эп.), адаптация манги, 2009
    #2 Фейри Тейл OVA-1 - OVA (5 эп.), spinoff (ответвление сюжета), 2011
    #3 Fairy Tail x Rave - OVA (1 эп.), адаптация манги, 2013
    #4 Фейри Тейл (фильм) - п/ф, адаптация манги, 2012
    #5 Фейри Тейл [ТВ-2] - ТВ (90 эп.), продолжение, 2014
    #6 Фейри Тейл Зеро - ТВ (12 эп.), предыстория, 2016
    #7 Фейри Тейл OVA-2 - OVA (3 эп.), spinoff (ответвление сюжета), 2016
    #8 Gekijouban Fairy Tail: Dragon Cry - п/ф, spinoff (ответвление сюжета), 2017
    #9 Фейри Тейл [ТВ-3] - ТВ (>25 эп.), продолжение, 2018

    Качество: WEBRip
    Тип релиза: Без хардсаба
    Формат видео: AVI
    Видео: XviD, 720x400, 23.976 fps, 1412 Kbps, 8 bits
    Аудио 1: AC-3, 44.1 KHz, 192 Kbps, 2 channels Язык Русский (в составе контейнера) ; Озвучка: Любительский одноголосый (Persona99)
    Аудио 2: AC-3, 44.1 KHz, 192 Kbps, 2 channels Язык Японский ; Озвучка 2: оригинал
    Субтитры: внешние srt, ass Язык субтитров русский Перевод risens team
    Подробные тех. данные

    General
    Complete name                            :EFairy Tail TV3 (2018)Fairy Tail [TV-3] - 01 [Persona99](XviD 720x400 AC3).rus.jap.avi
    Format                                   : AVI
    Format/Info                              : Audio Video Interleave
    File size                                : 309 MiB
    Duration                                 : 23mn 50s
    Overall bit rate                         : 1 810 Kbps
    Writing application                      : VirtualDubMod 1.5.10.2 (build 2540/release)
    Writing library                          : VirtualDubMod build 2540/release

    Video
    ID                                       : 0
    Format                                   : MPEG-4 Visual
    Format profile                           : Advanced Simple@L5
    Format settings, BVOP                    : 2
    Format settings, QPel                    : No
    Format settings, GMC                     : No warppoints
    Format settings, Matrix                  : Default (H.263)
    Codec ID                                 : XVID
    Codec ID/Hint                            : XviD
    Duration                                 : 23mn 50s
    Bit rate                                 : 1 412 Kbps
    Width                                    : 720 pixels
    Height                                   : 400 pixels
    Display aspect ratio                     : 16:9
    Frame rate                               : 23.976 fps
    Color space                              : YUV
    Chroma subsampling                       : 4:2:0
    Bit depth                                : 8 bits
    Scan type                                : Progressive
    Compression mode                         : Lossy
    Bits/(Pixel*Frame)                       : 0.204
    Stream size                              : 241 MiB (78%)
    Writing library                          : XviD 67

    Audio #1
    ID                                       : 1
    Format                                   : AC-3
    Format/Info                              : Audio Coding 3
    Mode extension                           : CM (complete main)
    Format settings, Endianness              : Big
    Codec ID                                 : 2000
    Duration                                 : 23mn 50s
    Bit rate mode                            : Constant
    Bit rate                                 : 192 Kbps
    Channel(s)                               : 2 channels
    Channel positions                        : Front: L R
    Sampling rate                            : 44.1 KHz
    Compression mode                         : Lossy
    Stream size                              : 32.7 MiB (11%)
    Alignment                                : Split accross interleaves
    Interleave, duration                     : 42 ms (1.00 video frame)
    Interleave, preload duration             : 500 ms

    Audio #2
    ID                                       : 2
    Format                                   : AC-3
    Format/Info                              : Audio Coding 3
    Mode extension                           : CM (complete main)
    Format settings, Endianness              : Big
    Codec ID                                 : 2000
    Duration                                 : 23mn 50s
    Bit rate mode                            : Constant
    Bit rate                                 : 192 Kbps
    Channel(s)                               : 2 channels
    Channel positions                        : Front: L R
    Sampling rate                            : 44.1 KHz
    Compression mode                         : Lossy
    Stream size                              : 32.7 MiB (11%)
    Alignment                                : Split accross interleaves
    Interleave, duration                     : 42 ms (1.00 video frame)
    Interleave, preload duration             : 500 ms
    Свернуть


    Список эпизодов

    01. The Lamia Scale Thanksgiving Festival
    Свернуть




    Семпл:
    Похожие раздачи Искать похожие
    Инструкция по скачиванию
     1  Качаем uTorrent версии 2.0 и выше
     2  После установки, жмем выше под постером на ссылку Скачать [MediaGet] или Скачать .torrent
     3  Открываем скачанный файл через соответствующий клиент: MediaGet или uTorrent
     4  Ждем пока подключатся участники
     5  Качаем
    Комментарии о  Сказка о хвосте феи / Fairy Tail [Сезон 03 | 01 серия из 25] | WEBRip 
    Ближайшее в кино
    Вверх