• Игры для PS4
  • Игры для PS3
  • Игры для XBOX360
  • Игры для PC
  • Игры для PS2
  • Игры для PSP
  • Для телефонов
  • Музыка
  • Книги / Журналы
  • Обои
  • Опрос
    Удобен ли сайт в использовании?
      0
    • Очень удобен, все понятно1,1,false,300,full
    • Удобен1,2,false,300,full
    • Средне1,3,false,300,full
    • Неудобен, трудно ориентироваться1,4,false,300,full
    • Совсем неудобен1,5,false,300,full
    Статистика
    Всего онлайн -
    Гостей -
    Пользователей -
    Короли трекера
    Благодарности () Закрыть
    Информация о фильме
    Название: Страшилы
    Оригинальное название: The Frighteners
    Год выпуска: 1996
    Выпущено: США, Новая Зеландия, Universal Pictures, WingNut Films
    Жанр:  Ужасы, комедия
    Режиссер: Питер Джексон
    В ролях: Майкл Дж. Фокс, Трини Альварадо, Питер Добсон, Джон Эстин, Джеффри Комбс, Ди Уоллес-Стоун, Джейк Бьюзи, Чи МакБрайд, Джим Файф, Трой Эванс

    О фильме: Экстрасенс Фрэнк Бэннистер, который зарабатывает на жизнь тем, что за скромное вознаграждение успешно избавляет дома от полтергейста, который сам предварительно наслал, сталкивается со страшным противником — вернувшимся с того света, а вернее, задержавшемся на этом после казни, маньяком-убийцей. Вместе с женщиной-врачом, муж которой был убит этим олицетворением зла, Фрэнк низвергает демона в ад.

    Продолжительность: 02:02:36
    Перевод: Профессиональный многоголосый, профессиональный двухголосый, авторский
    Субтитры: Русские, английские
    Навигация по главам: Есть

    Файл
    Качество: BDRip 1080p
    Видео: MPEG-4 AVC, 15,4 Мбит/сек, 1920x816, 23,976 кадра/сек
    Аудио #01: AC3, 6 ch, 640 Кбит/сек | Русский, профессиональный (многоголосый закадровый) Киномания
    Аудио #02: AC3, 6 ch, 448 Кбит/сек | Русский, профессиональный (многоголосый закадровый) Премьер Видео Фильм со вставками Киномании
    Аудио #03: AC3, 6 ch, 384 Кбит/сек | Русский, профессиональный (многоголосый закадровый) Позитив-мультимедиа со вставками Киномании
    Аудио #04: AC3, 2 ch, 192 Кбит/сек | Русский, профессиональный (многоголосый закадровый) СТС со вставками Киномании
    Аудио #05: AC3, 6 ch, 640 Кбит/сек | Русский, профессиональный (двухголосый закадровый) Петр Гланц и Инна Королева
    Аудио #06: AC3, 6 ch, 640 Кбит/сек | Русский, авторский (одноголосый закадровый) А. Гаврилов
    Аудио #07: AC3, 6 ch, 448 Кбит/сек | Русский, авторский (одноголосый закадровый) С. Визгунов со вставками А. Гаврилова
    Аудио #08: AC3, 6 ch, 448 Кбит/сек | Русский, авторский (одноголосый закадровый) Ю. Живов со вставками А. Гаврилова
    Аудио #09: AC3, 6 ch, 448 Кбит/сек | краинский, профессиональный (многоголосый закадровый) ТакТреба Продакшн со вставками одноголосого zavin
    Аудио #10: AC3, 6 ch, 640 Кбит/сек | Английский, оригинал



    Скриншоты
    [screen]http://img11.lostpic.net/2018/10/04/5acef4a6b8395b16c3a376b1d05941c0.png[/screen][screen]http://img11.lostpic.net/2018/10/04/0f4ce918065d0c509e988525b2b4f654.png[/screen][screen]http://img11.lostpic.net/2018/10/04/195913d364170625417bc785a79b8ea4.png[/screen][screen]http://img11.lostpic.net/2018/10/04/808e91d3be1b4e217834452d0145f2c8.png[/screen][screen]http://img11.lostpic.net/2018/10/04/07c334e079d5e1eb8c6c4db9917a1a7b.png[/screen][screen]http://img11.lostpic.net/2018/10/04/1ad528bfe5f832259af83a34089cf8a6.png[/screen][screen]http://img11.lostpic.net/2018/10/04/24108d329de6946cb6f36d3b6ecb0fe4.png[/screen][screen]http://img11.lostpic.net/2018/10/04/24108d329de6946cb6f36d3b6ecb0fe4.png[/screen]Свернуть


    Инфо-файл
    Общее
    Уникальный идентификатор                 : 247141977665773317680102933652863978208 (0xB9EDD04383350EC1B9D2AC8401240AE0)
    Полное имя                               : Страшилы.1996.BDRip.1080p.mkv
    Формат                                   : Matroska
    Версия формата                           : Version 2
    Размер файла                             : 17,8 Гбайт
    Продолжительность                        : 2 ч. 2 м.
    Общий поток                              : 20,8 Мбит/сек
    Дата кодирования                         : UTC 2018-10-03 23:17:43
    Программа кодирования                    : mkvmerge v5.8.0 ("No Sleep / Pillow") built on Sep  2 2012 15:37:04
    Библиотека кодирования                   : libebml v1.2.3 + libmatroska v1.3.0

    Видео
    Идентификатор                            : 1
    Формат                                   : AVC
    Формат/Информация                        : Advanced Video Codec
    Профиль формата                          : High@L4.1
    Настройки формата                        : CABAC / 5 Ref Frames
    Параметр CABAC формата                   : Да
    Параметр RefFrames формата               : 5 кадров
    Идентификатор кодека                     : V_MPEG4/ISO/AVC
    Продолжительность                        : 2 ч. 2 м.
    Битрейт                                  : 15,4 Мбит/сек
    Ширина                                   : 1920 пикселей
    Высота                                   : 816 пикселей
    Соотношение сторон                       : 2,35:1
    Режим частоты кадров                     : Постоянный
    Частота кадров                           : 23,976 (24000/1001) кадра/сек
    Цветовое пространство                    : YUV
    Субдискретизация насыщенности            : 4:2:0
    Битовая глубина                          : 8 бит
    Тип развёртки                            : Прогрессивная
    Бит/(Пиксели*Кадры)                      : 0.411
    Размер потока                            : 13,2 Гбайт (74%)
    Библиотека кодирования                   : x264 core 133 r2334+704+50 a7549b7 tMod [8-bit@all X86_64]
    Настройки программы                      : opencl=1 / cabac=1 / ref=5 / deblock=1:-3:-3 / analyse=0x3:0x133 / me=umh / subme=11 / psy=1 / fade_compensate=0.00 / psy_rd=1.10:0.25 / mixed_ref=1 / me_range=64 / chroma_me=1 / trellis=2 / 8x8dct=1 / cqm=0 / deadzone=21,11 / fast_pskip=0 / chroma_qp_offset=-4 / threads=12 / lookahead_threads=3 / sliced_threads=0 / nr=0 / decimate=1 / interlaced=0 / bluray_compat=0 / constrained_intra=0 / fgo=0 / bframes=16 / b_pyramid=2 / b_adapt=2 / b_bias=0 / direct=3 / weightb=1 / open_gop=0 / weightp=2 / keyint=240 / keyint_min=24 / scenecut=40 / intra_refresh=0 / rc_lookahead=200 / rc=crf / mbtree=1 / crf=17.0000 / qcomp=0.60 / qpmin=0 / qpmax=69 / qpstep=4 / ip_ratio=1.40 / aq=2:1.00 / aq-sensitivity=10.00 / aq-factor=1.00:1.00:1.00 / aq2=0 / aq3=0
    Язык                                     : English
    По умолчанию                             : Да
    Принудительно                            : Нет

    Аудио #1
    Идентификатор                            : 2
    Формат                                   : AC-3
    Формат/Информация                        : Audio Coding 3
    Идентификатор кодека                     : A_AC3
    Продолжительность                        : 2 ч. 2 м.
    Вид битрейта                             : Постоянный
    Битрейт                                  : 640 Кбит/сек
    Каналы                                   : 6 каналов
    Расположение каналов                     : Front: L C R, Side: L R, LFE
    Частота                                  : 48,0 КГц
    Частота кадров                           : 31,250 кадров/сек (1536 SPF)
    Битовая глубина                          : 16 бит
    Метод сжатия                             : С потерями
    Размер потока                            : 561 Мбайт (3%)
    Заголовок                                : MVO | Киномания
    Язык                                     : Russian
    По умолчанию                             : Да
    Принудительно                            : Нет

    Аудио #2
    Идентификатор                            : 3
    Формат                                   : AC-3
    Формат/Информация                        : Audio Coding 3
    Идентификатор кодека                     : A_AC3
    Продолжительность                        : 2 ч. 2 м.
    Вид битрейта                             : Постоянный
    Битрейт                                  : 448 Кбит/сек
    Каналы                                   : 6 каналов
    Расположение каналов                     : Front: L C R, Side: L R, LFE
    Частота                                  : 48,0 КГц
    Частота кадров                           : 31,250 кадров/сек (1536 SPF)
    Битовая глубина                          : 16 бит
    Метод сжатия                             : С потерями
    Размер потока                            : 393 Мбайт (2%)
    Заголовок                                : MVO | Премьер Видео Фильм со вставками Киномании
    Язык                                     : Russian
    По умолчанию                             : Нет
    Принудительно                            : Нет

    Аудио #3
    Идентификатор                            : 4
    Формат                                   : AC-3
    Формат/Информация                        : Audio Coding 3
    Идентификатор кодека                     : A_AC3
    Продолжительность                        : 2 ч. 2 м.
    Вид битрейта                             : Постоянный
    Битрейт                                  : 384 Кбит/сек
    Каналы                                   : 6 каналов
    Расположение каналов                     : Front: L C R, Side: L R, LFE
    Частота                                  : 48,0 КГц
    Частота кадров                           : 31,250 кадров/сек (1536 SPF)
    Битовая глубина                          : 16 бит
    Метод сжатия                             : С потерями
    Размер потока                            : 337 Мбайт (2%)
    Заголовок                                : MVO | Позитив-мультимедиа со вставками Киномании
    Язык                                     : Russian
    По умолчанию                             : Нет
    Принудительно                            : Нет

    Аудио #4
    Идентификатор                            : 5
    Формат                                   : AC-3
    Формат/Информация                        : Audio Coding 3
    Идентификатор кодека                     : A_AC3
    Продолжительность                        : 2 ч. 2 м.
    Вид битрейта                             : Постоянный
    Битрейт                                  : 192 Кбит/сек
    Каналы                                   : 2 канала
    Расположение каналов                     : Front: L R
    Частота                                  : 48,0 КГц
    Частота кадров                           : 31,250 кадров/сек (1536 SPF)
    Битовая глубина                          : 16 бит
    Метод сжатия                             : С потерями
    Размер потока                            : 168 Мбайт (1%)
    Заголовок                                : MVO | СТС со вставками Киномании
    Язык                                     : Russian
    По умолчанию                             : Нет
    Принудительно                            : Нет

    Аудио #5
    Идентификатор                            : 6
    Формат                                   : AC-3
    Формат/Информация                        : Audio Coding 3
    Идентификатор кодека                     : A_AC3
    Продолжительность                        : 2 ч. 2 м.
    Вид битрейта                             : Постоянный
    Битрейт                                  : 640 Кбит/сек
    Каналы                                   : 6 каналов
    Расположение каналов                     : Front: L C R, Side: L R, LFE
    Частота                                  : 48,0 КГц
    Частота кадров                           : 31,250 кадров/сек (1536 SPF)
    Битовая глубина                          : 16 бит
    Метод сжатия                             : С потерями
    Размер потока                            : 561 Мбайт (3%)
    Заголовок                                : DVO | П. Гланц, И. Королева
    Язык                                     : Russian
    По умолчанию                             : Нет
    Принудительно                            : Нет

    Аудио #6
    Идентификатор                            : 7
    Формат                                   : AC-3
    Формат/Информация                        : Audio Coding 3
    Идентификатор кодека                     : A_AC3
    Продолжительность                        : 2 ч. 2 м.
    Вид битрейта                             : Постоянный
    Битрейт                                  : 640 Кбит/сек
    Каналы                                   : 6 каналов
    Расположение каналов                     : Front: L C R, Side: L R, LFE
    Частота                                  : 48,0 КГц
    Частота кадров                           : 31,250 кадров/сек (1536 SPF)
    Битовая глубина                          : 16 бит
    Метод сжатия                             : С потерями
    Размер потока                            : 561 Мбайт (3%)
    Заголовок                                : AVO | А. Гаврилов
    Язык                                     : Russian
    По умолчанию                             : Нет
    Принудительно                            : Нет

    Аудио #7
    Идентификатор                            : 8
    Формат                                   : AC-3
    Формат/Информация                        : Audio Coding 3
    Идентификатор кодека                     : A_AC3
    Продолжительность                        : 2 ч. 2 м.
    Вид битрейта                             : Постоянный
    Битрейт                                  : 448 Кбит/сек
    Каналы                                   : 6 каналов
    Расположение каналов                     : Front: L C R, Side: L R, LFE
    Частота                                  : 48,0 КГц
    Частота кадров                           : 31,250 кадров/сек (1536 SPF)
    Битовая глубина                          : 16 бит
    Метод сжатия                             : С потерями
    Размер потока                            : 393 Мбайт (2%)
    Заголовок                                : AVO | С. Визгунов со вставками А. Гаврилова
    Язык                                     : Russian
    По умолчанию                             : Нет
    Принудительно                            : Нет

    Аудио #8
    Идентификатор                            : 9
    Формат                                   : AC-3
    Формат/Информация                        : Audio Coding 3
    Идентификатор кодека                     : A_AC3
    Продолжительность                        : 2 ч. 2 м.
    Вид битрейта                             : Постоянный
    Битрейт                                  : 448 Кбит/сек
    Каналы                                   : 6 каналов
    Расположение каналов                     : Front: L C R, Side: L R, LFE
    Частота                                  : 48,0 КГц
    Частота кадров                           : 31,250 кадров/сек (1536 SPF)
    Битовая глубина                          : 16 бит
    Метод сжатия                             : С потерями
    Размер потока                            : 393 Мбайт (2%)
    Заголовок                                : AVO | Ю. Живов со вставками А. Гаврилова
    Язык                                     : Russian
    По умолчанию                             : Нет
    Принудительно                            : Нет

    Аудио #9
    Идентификатор                            : 10
    Формат                                   : AC-3
    Формат/Информация                        : Audio Coding 3
    Идентификатор кодека                     : A_AC3
    Продолжительность                        : 2 ч. 2 м.
    Вид битрейта                             : Постоянный
    Битрейт                                  : 448 Кбит/сек
    Каналы                                   : 6 каналов
    Расположение каналов                     : Front: L C R, Side: L R, LFE
    Частота                                  : 48,0 КГц
    Частота кадров                           : 31,250 кадров/сек (1536 SPF)
    Битовая глубина                          : 16 бит
    Метод сжатия                             : С потерями
    Размер потока                            : 393 Мбайт (2%)
    Заголовок                                : MVO | ТакТреба Продакшн со вставками одноголосого zavin
    Язык                                     : Ukrainian
    По умолчанию                             : Нет
    Принудительно                            : Нет

    Аудио #10
    Идентификатор                            : 11
    Формат                                   : AC-3
    Формат/Информация                        : Audio Coding 3
    Идентификатор кодека                     : A_AC3
    Продолжительность                        : 2 ч. 2 м.
    Вид битрейта                             : Постоянный
    Битрейт                                  : 640 Кбит/сек
    Каналы                                   : 6 каналов
    Расположение каналов                     : Front: L C R, Side: L R, LFE
    Частота                                  : 48,0 КГц
    Частота кадров                           : 31,250 кадров/сек (1536 SPF)
    Битовая глубина                          : 16 бит
    Метод сжатия                             : С потерями
    Размер потока                            : 561 Мбайт (3%)
    Заголовок                                : Original
    Язык                                     : English
    По умолчанию                             : Нет
    Принудительно                            : Нет

    Текст #1
    Идентификатор                            : 12
    Формат                                   : UTF-8
    Идентификатор кодека                     : S_TEXT/UTF8
    Идентификатор кодека/Информация          : UTF-8 Plain Text
    Заголовок                                : 1
    Язык                                     : Russian
    По умолчанию                             : Нет
    Принудительно                            : Нет

    Текст #2
    Идентификатор                            : 13
    Формат                                   : UTF-8
    Идентификатор кодека                     : S_TEXT/UTF8
    Идентификатор кодека/Информация          : UTF-8 Plain Text
    Заголовок                                : 2
    Язык                                     : Russian
    По умолчанию                             : Нет
    Принудительно                            : Нет

    Текст #3
    Идентификатор                            : 14
    Формат                                   : UTF-8
    Идентификатор кодека                     : S_TEXT/UTF8
    Идентификатор кодека/Информация          : UTF-8 Plain Text
    Язык                                     : English
    По умолчанию                             : Нет
    Принудительно                            : Нет

    Текст #4
    Идентификатор                            : 15
    Формат                                   : UTF-8
    Идентификатор кодека                     : S_TEXT/UTF8
    Идентификатор кодека/Информация          : UTF-8 Plain Text
    Заголовок                                : SDH
    Язык                                     : English
    По умолчанию                             : Нет
    Принудительно                            : Нет

    Меню
    00:00:00.000                             : en:Chapter 1
    00:06:08.576                             : en:Chapter 2
    00:07:18.020                             : en:Chapter 3
    00:09:25.398                             : en:Chapter 4
    00:12:41.218                             : en:Chapter 5
    00:17:11.446                             : en:Chapter 6
    00:18:04.166                             : en:Chapter 7
    00:20:02.492                             : en:Chapter 8
    00:21:09.726                             : en:Chapter 9
    00:25:10.091                             : en:Chapter 10
    00:26:34.426                             : en:Chapter 11
    00:28:34.420                             : en:Chapter 12
    00:31:11.286                             : en:Chapter 13
    00:33:54.824                             : en:Chapter 14
    00:35:19.951                             : en:Chapter 15
    00:39:07.303                             : en:Chapter 16
    00:42:56.614                             : en:Chapter 17
    00:46:48.430                             : en:Chapter 18
    00:49:40.477                             : en:Chapter 19
    00:52:23.139                             : en:Chapter 20
    00:53:13.565                             : en:Chapter 21
    00:57:19.477                             : en:Chapter 22
    00:58:38.139                             : en:Chapter 23
    00:59:58.678                             : en:Chapter 24
    01:01:31.354                             : en:Chapter 25
    01:02:06.305                             : en:Chapter 26
    01:06:56.720                             : en:Chapter 27
    01:08:38.863                             : en:Chapter 28
    01:14:43.645                             : en:Chapter 29
    01:15:45.332                             : en:Chapter 30
    01:18:06.305                             : en:Chapter 31
    01:20:20.607                             : en:Chapter 32
    01:25:23.868                             : en:Chapter 33
    01:30:28.046                             : en:Chapter 34
    01:32:42.139                             : en:Chapter 35
    01:34:52.394                             : en:Chapter 36
    01:36:52.555                             : en:Chapter 37
    01:37:37.685                             : en:Chapter 38
    01:39:40.891                             : en:Chapter 39
    01:40:56.508                             : en:Chapter 40
    01:42:23.553                             : en:Chapter 41
    01:46:57.285                             : en:Chapter 42
    01:49:02.035                             : en:Chapter 43
    01:49:37.487                             : en:Chapter 44
    01:52:13.351                             : en:Chapter 45
    01:54:14.389                             : en:Chapter 46
    01:55:56.949                             : en:Chapter 47
    01:57:50.438                             : en:Chapter 48Свернуть




    Дополнительная информация
    • Исходник видео взят с зарубежного трекера.Свернуть


    Сравнения с аналогичным релизом
    http://screenshotcomparison.com/comparison/121879Свернуть


    Сборка:[img]http://i1.imageban.ru/out/2018/02/13/db08a675822da337df05f97bda2ce544.gif[/img] [img]http://i3.imageban.ru/out/2018/07/23/276881ff853d23c7f0c2335cfae4252f.png[/img]
    Похожие раздачи Искать похожие
    Инструкция по скачиванию
     1  Качаем uTorrent версии 2.0 и выше
     2  После установки, жмем выше под постером на ссылку Скачать [MediaGet] или Скачать .torrent
     3  Открываем скачанный файл через соответствующий клиент: MediaGet или uTorrent
     4  Ждем пока подключатся участники
     5  Качаем
    Комментарии о  Страшилы / The Frighteners | BDRip 1080p 
    Ближайшее в кино
    Вверх