• Игры для PS4
  • Игры для PS3
  • Игры для XBOX360
  • Игры для PC
  • Игры для PS2
  • Игры для PSP
  • Для телефонов
  • Музыка
  • Книги / Журналы
  • Обои
  • Опрос
    Удобен ли сайт в использовании?
      0
    • Очень удобен, все понятно1,1,false,300,full
    • Удобен1,2,false,300,full
    • Средне1,3,false,300,full
    • Неудобен, трудно ориентироваться1,4,false,300,full
    • Совсем неудобен1,5,false,300,full
    Статистика
    Всего онлайн -
    Гостей -
    Пользователей -
    Короли трекера
    Благодарности () Закрыть
    Информация о фильме
    Название: Школьницы в цепях
    Оригинальное название: Schoolgirls in Chains
    Год выхода: 1973
    Жанр: ужасы
    Режиссер: Дональд М. Джонс
    В ролях: Гари Кент, Джон Стоглин, Стэффорд Морган, Сюзанн Ланд, Шерил Уотерс, Мерри Линн Росс, Т.Р. Блэкберн, Грета Гэйлорд, Расселл Лэйн, Ирв Саундерс

    О фильме:
    Парочка свихнувшихся братьев под лидерством своей безумной мамаши похищает в округе девушек, заковывает их в цепи в подвале своего дома и заставляет играть в игры, обычно закачивающиеся пытками и смертью.



    Страна: США
    Студия: Mirror Releasing
    Продолжительность: 01:30:23
    Перевод: Авторский (одноголосый закадровый) Андрей Дольский

    Файл
    Кодек: x264
    Качество: BDRip 1080p
    Видео: MPEG4 AVC, 11,5 Мбит/сек, 1920x1080, 23,976 кадра/сек
    Звук 1: Русский (AC3, 2 ch, 192 Кбит/сек)
    Звук 2: Английски (DTS, 2 ch, 1509 Кбит/сек)
    MI
    Общее
    Уникальный идентификатор                 : 92880913602834697179465734409165787882 (0x45E0369951DDA53B63904841C08CD2EA)
    Полное имя                               : G:HD фильмы 2Schoolgirls.in.Chains.1973.BDRip 1080.funtden.mkv
    Формат                                   : Matroska
    Версия формата                           : Version 4 / Version 2
    Размер файла                             : 8,34 Гбайт
    Продолжительность                        : 1 ч. 30 м.
    Общий поток                              : 13,2 Мбит/сек
    Название фильма                          : Schoolgirls.in.Chains.1973.1080p.BluRay.x264.DTS-FGT
    Дата кодирования                         : UTC 2018-10-08 14:51:00
    Программа кодирования                    : mkvmerge v22.0.0 ("At The End Of The World") 64-bit
    Библиотека кодирования                   : libebml v1.3.5 + libmatroska v1.4.8
    DURATION                                 : 01:30:23.360000000
    NUMBER_OF_FRAMES                         : 169480
    NUMBER_OF_BYTES                          : 130160640
    _STATISTICS_WRITING_APP                  : mkvmerge v22.0.0 ("At The End Of The World") 64-bit
    _STATISTICS_WRITING_DATE_UTC             : 2018-10-08 14:51:00
    _STATISTICS_TAGS                         : BPS DURATION NUMBER_OF_FRAMES NUMBER_OF_BYTES
    Attachment                               : Yes / Yes / Yes / Yes

    Видео
    Идентификатор                            : 1
    Формат                                   : AVC
    Формат/Информация                        : Advanced Video Codec
    Профиль формата                          : High@L4.1
    Параметр CABAC формата                   : Да
    Параметр ReFrames формата                : 4 кадра
    Идентификатор кодека                     : V_MPEG4/ISO/AVC
    Продолжительность                        : 1 ч. 30 м.
    Битрейт                                  : 11,5 Мбит/сек
    Ширина                                   : 1920 пикселей
    Высота                                   : 1080 пикселей
    Соотношение сторон                       : 16:9
    Режим частоты кадров                     : Постоянный
    Частота кадров                           : 23,976 кадра/сек
    Цветовое пространство                    : YUV
    Субдискретизация насыщенности            : 4:2:0
    Битовая глубина                          : 8 бит
    Тип развёртки                            : Прогрессивная
    Бит/(Пиксели*Кадры)                      : 0.231
    Размер потока                            : 7,10 Гбайт (85%)
    Заголовок                                : Schoolgirls.in.Chains.1973.BDRip 1080.funtden
    Библиотека кодирования                   : x264 core 148 r2694 3b70645
    Настройки программы                      : cabac=1 / ref=4 / deblock=1:-2:-2 / analyse=0x3:0x113 / me=umh / subme=9 / psy=1 / psy_rd=1.00:0.15 / mixed_ref=1 / me_range=16 / chroma_me=1 / trellis=2 / 8x8dct=1 / cqm=0 / deadzone=21,11 / fast_pskip=1 / chroma_qp_offset=-3 / threads=24 / lookahead_threads=3 / sliced_threads=0 / nr=0 / decimate=1 / interlaced=0 / bluray_compat=0 / constrained_intra=0 / bframes=3 / b_pyramid=2 / b_adapt=2 / b_bias=0 / direct=3 / weightb=1 / open_gop=0 / weightp=2 / keyint=250 / keyint_min=25 / scenecut=40 / intra_refresh=0 / rc_lookahead=50 / rc=abr / mbtree=1 / bitrate=11500 / ratetol=1.0 / qcomp=0.60 / qpmin=0 / qpmax=69 / qpstep=4 / vbv_maxrate=31250 / vbv_bufsize=31250 / nal_hrd=none / filler=0 / ip_ratio=1.40 / aq=1:1.00
    Язык                                     : English
    Default                                  : Да
    Forced                                   : Нет

    Аудио #1
    Идентификатор                            : 2
    Формат                                   : AC-3
    Формат/Информация                        : Audio Coding 3
    Расширение режима                        : CM (complete main)
    Параметр Endianness формата              : Big
    Идентификатор кодека                     : A_AC3
    Продолжительность                        : 1 ч. 30 м.
    Вид битрейта                             : Постоянный
    Битрейт                                  : 192 Кбит/сек
    Каналы                                   : 2 канала
    Расположение каналов                     : Front: L R
    Частота                                  : 48,0 КГц
    Битовая глубина                          : 16 бит
    Метод сжатия                             : С потерями
    Размер потока                            : 124 Мбайт (1%)
    Заголовок                                : Авторский (Андрей Дольский)
    Язык                                     : Russian
    Default                                  : Да
    Forced                                   : Да

    Аудио #2
    Идентификатор                            : 3
    Формат                                   : DTS
    Формат/Информация                        : Digital Theater Systems
    Режим                                    : 16
    Параметр Endianness формата              : Big
    Идентификатор кодека                     : A_DTS
    Продолжительность                        : 1 ч. 30 м.
    Вид битрейта                             : Постоянный
    Битрейт                                  : 1509 Кбит/сек
    Каналы                                   : 2 канала
    Расположение каналов                     : Front: L R
    Частота                                  : 48,0 КГц
    Битовая глубина                          : 24 бит
    Метод сжатия                             : С потерями
    Размер потока                            : 976 Мбайт (11%)
    Заголовок                                : Original (Eng)
    Язык                                     : English
    Default                                  : Нет
    Forced                                   : Нет

    Меню
    00:00:00.000                             : en:Chapter 01
    00:02:58.469                             : en:Chapter 02
    00:09:11.092                             : en:Chapter 03
    00:14:45.217                             : en:Chapter 04
    00:20:20.093                             : en:Chapter 05
    00:25:12.135                             : en:Chapter 06
    00:34:00.288                             : en:Chapter 07
    00:42:49.066                             : en:Chapter 08
    00:50:18.807                             : en:Chapter 09
    00:55:02.132                             : en:Chapter 10
    01:01:00.156                             : en:Chapter 11
    01:04:29.156                             : en:Chapter 12
    01:13:24.483                             : en:Chapter 13
    01:19:52.204                             : en:Chapter 14
    01:24:50.627                             : en:Chapter 15Свернуть


    Инструкция по скачиванию
     1  Качаем uTorrent версии 2.0 и выше
     2  После установки, жмем выше под постером на ссылку Скачать [MediaGet] или Скачать .torrent
     3  Открываем скачанный файл через соответствующий клиент: MediaGet или uTorrent
     4  Ждем пока подключатся участники
     5  Качаем
    Комментарии о  Школьницы в цепях / Schoolgirls in Chains | BDRip 1080p 
    Ближайшее в кино
    Вверх