• Игры для PS4
  • Игры для PS3
  • Игры для XBOX360
  • Игры для PC
  • Игры для PS2
  • Игры для PSP
  • Для телефонов
  • Музыка
  • Книги / Журналы
  • Обои
  • Опрос
    Откуда Вы о нас узнали?
      0
    • От знакомых2,1,false,300,full
    • Из социальных сетей2,2,false,300,full
    • Из поисковых систем2,3,false,300,full
    • Другое2,4,false,300,full
    Статистика
    Всего онлайн -
    Гостей -
    Пользователей -
    Короли трекера
    Благодарности () Закрыть
    Информация о фильме
    Название: Чудаардварк
    Оригинальное название: Bizaardvark
    Год выпуска: 2018
    Жанр:  Комедия, мюзикл
    Режиссер: Джош Лерман, Кайл Стегина
    В ролях: Оливия Родриго, Мэдисон Ху, ДеВор Ледридж, Этан Уокер, Джейк Пол, Росс Кобелак

    О фильме:
    Сюжет сериала связан непосредственно с музыкой, Двое девчонок которым по 15 лет и они так же дружат. Пейдж вместе с Фрэнки хотят стать видеоблогерами, и вести свою страничку.

    [img]http://imdb.snick.ru/ratefor/02/tt4800624.png[/img][img]https://u.myshows.me/r/49277.png[/img]
    Страна: США
    Студия: Headquarters Post (HQpost),It"s a Laugh Productions
    Продолжительность: 1 x ~ 00:25:00
    Перевод: Любительский многоголосый | ColdFilm

    Файл
    Кодек: x264 (AVC)
    Качество: WEBRip 720p
    Видео: ~ 3500 Кбит/с, 1280x720, 25.000 fps
    Звук: Русский / AAC / 2.0 / 192kbs

    [img]http://s020.radikal.ru/i712/1701/ad/1bb0bd9bc94a.gif[/img][img]https://a.radikal.ru/a25/1808/89/98e67176e03c.png[/img]

    Скриншоты
    [screen]https://i1.imageban.ru/out/2018/10/08/57ae2a6e277753092cc4c72052b5aa32.png[/screen][screen]https://i4.imageban.ru/out/2018/10/08/61d94765f9e4f34ec574727afcfddee0.png[/screen][screen]https://i5.imageban.ru/out/2018/10/08/5f6eaccc91a40bcfda74f71d251dfde0.png[/screen][screen]https://i2.imageban.ru/out/2018/10/08/787280d331619f8d8753c9ead6de96e2.png[/screen]
    Свернуть


    MI


    General
    Unique ID                   : 176927762765777271168943445607350081191 (0x851B0C31819867B391FC07DBF90116A7)
    Complete name               : Bizaardvark.S04E01.720p.ColdFilm.mkv
    Format                      : Matroska
    Format version              : Version 2
    File size                   : 641 MiB
    Duration                    : 24 min 10 s
    Overall bit rate            : 3 707 kb/s
    Encoded date                : UTC 2018-10-07 09:03:24 / UTC 2017-11-20 18:25:40
    Writing application         : mkvmerge v3.3.0 ("Language") built on Mar 24 2010 14:59:24
    Writing library             : libebml v0.8.0 + libmatroska v0.9.0 / Lavf54.63.104

    Video
    ID                          : 1
    Format                      : AVC
    Format/Info                 : Advanced Video Codec
    Format profile              : Main@L3.1
    Format settings             : CABAC / 1 Ref Frames
    Format settings, CABAC      : Yes
    Format settings, ReFrames   : 1 frame
    Codec ID                    : V_MPEG4/ISO/AVC
    Duration                    : 24 min 10 s
    Bit rate                    : 3 500 kb/s
    Width                       : 1 280 pixels
    Height                      : 720 pixels
    Display aspect ratio        : 16:9
    Frame rate mode             : Constant
    Frame rate                  : 25.000 FPS
    Color space                 : YUV
    Chroma subsampling          : 4:2:0
    Bit depth                   : 8 bits
    Scan type                   : Progressive
    Bits/(Pixel*Frame)          : 0.152
    Stream size                 : 595 MiB (93%)
    Writing library             : x264 core 129
    Encoding settings           : cabac=1 / ref=1 / deblock=1:0:0 / analyse=0x1:0x131 / me=dia / subme=2 / psy=1 / psy_rd=1.00:0.00 / mixed_ref=0 / me_range=16 / chroma_me=1 / trellis=0 / 8x8dct=0 / cqm=0 / deadzone=21,11 / fast_pskip=1 / chroma_qp_offset=0 / threads=4 / lookahead_threads=1 / sliced_threads=0 / nr=0 / decimate=1 / interlaced=0 / bluray_compat=0 / constrained_intra=0 / bframes=0 / weightp=2 / keyint=250 / keyint_min=25 / scenecut=40 / intra_refresh=0 / rc_lookahead=40 / rc=abr / mbtree=1 / bitrate=3500 / ratetol=1.0 / qcomp=0.60 / qpmin=10 / qpmax=51 / qpstep=4 / ip_ratio=1.41 / aq=1:1.00
    Default                     : No
    Forced                      : No

    Audio
    ID                          : 2
    Format                      : AC-3
    Format/Info                 : Audio Coding 3
    Codec ID                    : A_AC3
    Duration                    : 24 min 10 s
    Bit rate mode               : Constant
    Bit rate                    : 192 kb/s
    Channel(s)                  : 2 channels
    Channel positions           : Front: L R
    Sampling rate               : 48.0 kHz
    Frame rate                  : 31.250 FPS (1536 SPF)
    Bit depth                   : 16 bits
    Compression mode            : Lossy
    Stream size                 : 33.2 MiB (5%)
    Service kind                : Complete Main
    Default                     : Yes
    Forced                      : No

    Свернуть
    Похожие раздачи Искать похожие
    Инструкция по скачиванию
     1  Качаем uTorrent версии 2.0 и выше
     2  После установки, жмем выше под постером на ссылку Скачать [MediaGet] или Скачать .torrent
     3  Открываем скачанный файл через соответствующий клиент: MediaGet или uTorrent
     4  Ждем пока подключатся участники
     5  Качаем
    Комментарии о  Чудаардварк / Bizaardvark [Сезон 04 | 01 серия из 06] | WEBRip 720p 
    Ближайшее в кино
    Вверх