• Игры для PS4
  • Игры для PS3
  • Игры для XBOX360
  • Игры для PC
  • Игры для PS2
  • Игры для PSP
  • Для телефонов
  • Музыка
  • Книги/Журналы
  • Обои
  •  
    Опрос
    Удобен ли сайт в использовании?
      0
    • Очень удобен, все понятно1,1,false,300,full
    • Удобен1,2,false,300,full
    • Средне1,3,false,300,full
    • Неудобен, трудно ориентироваться1,4,false,300,full
    • Совсем неудобен1,5,false,300,full
    Статистика
    Загрузка...
    Динозавр [Серии 01-02 из 10] | WEBRip
    Статус  Проверено
    В закладки
    Модератор: Max

    Динозавр [Серии 01-02 из 10] | WEBRip [Сериалы 2018] скачать торрентом/torrent бесплатно

    Год выхода
    Категории
    Язык
    Закачал
    Max | 09 октября в 10ч 17м 25с
    Раздел
    Отзывов
    0
    Раздают: 0 Качают: 0 Скачали: 0 Размер: 1.09 GB
    Инфо о раздаче | Благодарности |
    0/5
    0
    0 5 0
    Поддержи нас — расскажи друзьям!
    Orbitum
    Новый интернет-браузер Быстрее загружает сайты Экономит интернет—трафик Меняет оформление страницы ВК Блокирует всю рекламу на сайтах Загружает торренты как

    µTorrent

    клиент
    Объеденяет все твои чаты из соц. сетей в один Проигрывает твою музыку не заходя во ВКонтакте
    Скачать и многое другое... Подробности на сайте производителя
    Оригинальное название: Динозавр
    Год выпуска: 2018
    Жанр:  Криминал, мелодрама
    Режиссер: Евгений Серов, Всеволод Аравин, Олег Компасов
    В ролях: Андрей Смирнов, Александр Панкратов-Чёрный, Евгений Миллер, Анна Васильева, Максим Литовченко, Михаил Евланов, Ольга Тумайкина, Илья Любимов, Сергей Епишев, Александр Берда, Илья Ильин, Роман Полянский, Александра Мареева, Ольга Филиппова, Юрий Чурсин, Елена Сафонова, Геннадий Яковлев, Сергей Жигунов, Валерий Новиков, Александр Вдовин, Юрий Сысоев (I), Светлана Немоляева, Галина Петрова, Борис Смолкин, Борис Невзоров, Иван Лакшин, Борис Токарев, Сергей Сосновский, Михаил Горский

    О фильме:
    Престарелый криминальный авторитет Семен Тимофеевич Бабушкин, о чьем воровском таланте в свое время слагали легенды, последние 35 лет Семен Тимофеевич не выходил из тюрьмы, предпочитая ее свободе, где у него не осталось ни друзей, ни родных. Но однажды Бабушкин получает письмо, из которого узнает, что у него, оказывается, все-таки есть на воле кровиночка, сын Слава. По иронии судьбы, младший Бабушкин служит следователем в органах, но в настоящее время нуждается в помощи - его серьезно подставили, и под угрозой оказалась не только его жизнь, но и безопасность его дочери. Тогда благородный бандит принимается налаживать свои старые связи и навыки, чтобы вытащить новоявленную семью из беды.



    Страна: Россия
    Студия: Продюсерский центр Сергея Жигунова
    Продолжительность: 2 x ~ 00:47:00
    Перевод: Не требуется
    Субтитры: нет

    Файл
    Формат: avi
    Качество: WEBRip
    Видео: XviD build 73, 720x400 (16:9), 25.000 fps, ~ 1450 Kbps (~ 0.200 bit/pixel)
    Звук: 48.0 kHz, AC3, 2/0 ch, 192 kbps

    MediaInfo
    General
    Complete name               : D:RazdachiDinozavr.2018.XviD.WEBRip.GeneralFilmDinozavr.e01.avi
    Format                      : AVI
    Format/Info                 : Audio Video Interleave
    File size                   : 557 MiB
    Duration                    : 47 min 10 s
    Overall bit rate            : 1 651 kb/s
    Writing application         : VirtualDubMod 1.5.10.3 | www.virtualdub-fr.org || (build 2550/release)
    Writing library             : VirtualDubMod build 2550/release

    Video
    ID                          : 0
    Format                      : MPEG-4 Visual
    Format profile              : Advanced Simple@L5
    Format settings, BVOP       : 1
    Format settings, QPel       : No
    Format settings, GMC        : No warppoints
    Format settings, Matrix     : Custom
    Codec ID                    : XVID
    Codec ID/Hint               : XviD
    Duration                    : 47 min 10 s
    Bit rate                    : 1 450 kb/s
    Width                       : 720 pixels
    Height                      : 400 pixels
    Display aspect ratio        : 16:9
    Frame rate                  : 25.000 FPS
    Color space                 : YUV
    Chroma subsampling          : 4:2:0
    Bit depth                   : 8 bits
    Scan type                   : Progressive
    Compression mode            : Lossy
    Bits/(Pixel*Frame)          : 0.201
    Stream size                 : 489 MiB (88%)
    Writing library             : XviD 73

    Audio
    ID                          : 1
    Format                      : AC-3
    Format/Info                 : Audio Coding 3
    Format settings, Endianness : Big
    Codec ID                    : 2000
    Duration                    : 47 min 10 s
    Bit rate mode               : Constant
    Bit rate                    : 192 kb/s
    Channel(s)                  : 2 channels
    Channel positions           : Front: L R
    Sampling rate               : 48.0 kHz
    Frame rate                  : 31.250 FPS (1536 SPF)
    Bit depth                   : 16 bits
    Compression mode            : Lossy
    Stream size                 : 64.8 MiB (12%)
    Alignment                   : Split accross interleaves
    Interleave, duration        : 40  ms (1.00 video frame)
    Interleave, preload duratio : 500  ms
    Service kind                : Complete Main


    Скриншоты
    [img]http://i89.fastpic.ru/big/2018/1008/ca/cb6268813ef4998279a5d6ee88b40eca.png[/img][img]http://i89.fastpic.ru/big/2018/1008/d2/4b59225d5c6ab5b84aff2103f347e4d2.png[/img][img]http://i89.fastpic.ru/big/2018/1008/d5/2713838ea9584fb593882c40b8f9c2d5.png[/img][img]http://i89.fastpic.ru/big/2018/1008/e2/25adb1582f723fd3954449fc3c4042e2.png[/img][img]http://i89.fastpic.ru/big/2018/1008/39/23b7ddf774157d2797efe7fe9c1d4c39.png[/img][img]http://i89.fastpic.ru/big/2018/1008/76/de8ac502febce1dd17164e0b9a52f576.png[/img]
    Еще похожие »

    Как скачать?
    1. Качаем UTorrent версии 2.0 и выше отсюда
    2. После установки, жмем на ссылку Скачать торрент.
    3. Открываем его через utorrent.
    4. Ждем пока подключатся участники.
    5. Качаем.


    Комментарии о Динозавр [Серии 01-02 из 10] | WEBRip
    Добавлять комментарии могут только зарегистрированные пользователи

    Зарегистрироваться или Войти


    Ближайшее в кино
    • Примадонна дата выхода 18 октября 2018Примадонна
      Дата выхода: 18 октября 2018
    • 885317|Ученик чудовища|18 октября 2018|200|300Ученик чудовища
      Дата выхода: 18 октября 2018
    • 472369|Хэллоуин|18 октября 2018|200|300Хэллоуин
      Дата выхода: 18 октября 2018
    • 1005852|Дикая жизнь|18 октября 2018|200|300Дикая жизнь
      Дата выхода: 18 октября 2018
    • 696499|Галвестон|18 октября 2018|200|300Галвестон
      Дата выхода: 18 октября 2018
    • 1111886|Лукас|18 октября 2018|200|300Лукас
      Дата выхода: 18 октября 2018
    • 1045555|Вечная жизнь Александра Христофорова|18 октября 2018|200|300Вечная жизнь Александра Христофорова
      Дата выхода: 18 октября 2018
    • 1112943|Шестой пост|18 октября 2018|200|300Шестой пост
      Дата выхода: 18 октября 2018
    • 1044626|Тайна магазина игрушек|18 октября 2018|200|300Тайна магазина игрушек
      Дата выхода: 18 октября 2018
    • 629086|Лягушонок Риббит|18 октября 2018|200|300Лягушонок Риббит
      Дата выхода: 18 октября 2018
    • 991817|Закат|18 октября 2018|200|300Закат
      Дата выхода: 18 октября 2018
    • 1020860|Безупречная жизнь|18 октября 2018|200|300Безупречная жизнь
      Дата выхода: 18 октября 2018
    • 968603|Зимние братья|18 октября 2018|200|300Зимние братья
      Дата выхода: 18 октября 2018
    • 1008554|Слоны могут играть в футбол|18 октября 2018|200|300Слоны могут играть в футбол
      Дата выхода: 18 октября 2018
    • 939290|Прогулка по Риму|18 октября 2018|200|300Прогулка по Риму
      Дата выхода: 18 октября 2018
    Вверх