• Игры для PS4
  • Игры для PS3
  • Игры для XBOX360
  • Игры для PC
  • Игры для PS2
  • Игры для PSP
  • Для телефонов
  • Музыка
  • Книги / Журналы
  • Обои
  • Опрос
    Удобен ли сайт в использовании?
      0
    • Очень удобен, все понятно1,1,false,300,full
    • Удобен1,2,false,300,full
    • Средне1,3,false,300,full
    • Неудобен, трудно ориентироваться1,4,false,300,full
    • Совсем неудобен1,5,false,300,full
    Статистика
    Всего онлайн -
    Гостей -
    Пользователей -
    Короли трекера
    Благодарности () Закрыть
    Информация о фильме
    Название: Игроки (Футболисты)
    Оригинальное название: Ballers
    Год выпуска: 2018
    Жанр:  Драма, комедия
    Страна: США, Leverage Management
    Режиссер: Питер Берг
    В ролях: Дуэйн Джонсон, Джасмин Саймон, Донован Картер, Роб Кордри, Трой Гэрити, Омар Бенсон Миллер, Джон Дэвид Вашингтон, Анабель Акоста, Дуле Хилл, Ариэль Кеббел

    О фильме: Новый совместный проект Дуэйна «Скалы» Джонсона, Марка Уолберга и режиссера «Хэнкока» Питера Берга - комедийная драма НВО о жизни профессиональных игроков в американский футбол. Они зарабатывают миллионы, на них молятся фанаты, их показывают в новостях. Но помимо многочасовых тренировок, пятничных игр и вспышек фотокамер у них есть друзья, семьи и, конечно, проблемы – почти такие же, как у обычных людей. С девушкой помириться - это, знаете ли, не тачдаун оформить.



    Файл
    Качество:  WEBRip 1080p
    Видео данные: MKV, 1920x1080 (16:9), 23.976 fps, 8640 Кбит/с
    Аудио данные: AC3, 2 ch, 192 Кбит/с
    Перевод: Любительский многоголосый (GreenРай Studio)
    Продолжительность: 9 x 00:30:00

    Медиаинфо
    General
    Unique ID                                : 200599702348460241456902922771249882017 (0x96EA18EC81BA5DE3B2D519CCEAB5E3A1)
    Complete name                            : C:UsersIgorDesktopфутболBallers.S04.WEB-DL.1080pBallers.S04E01.WEB-DL.1080p.mkv
    Format                                   : Matroska
    Format version                           : Version 4
    File size                                : 1.93 GiB
    Duration                                 : 30 min 42 s
    Overall bit rate                         : 9 011 kb/s
    Encoded date                             : UTC 2018-09-18 14:50:43
    Writing application                      : mkvmerge v6.5.0 ("Isn"t she lovely") built on Oct 20 2013 12:50:05
    Writing library                          : libebml v1.3.0 + libmatroska v1.4.1

    Video
    ID                                       : 1
    Format                                   : AVC
    Format/Info                              : Advanced Video Codec
    Format profile                           : High@L3.1
    Format settings                          : CABAC / 4 Ref Frames
    Format settings, CABAC                   : Yes
    Format settings, RefFrames               : 4 frames
    Codec ID                                 : V_MPEG4/ISO/AVC
    Duration                                 : 30 min 42 s
    Bit rate                                 : 8 640 kb/s
    Width                                    : 1 920 pixels
    Height                                   : 1 080 pixels
    Display aspect ratio                     : 16:9
    Frame rate mode                          : Constant
    Frame rate                               : 23.976 (23976/1000) FPS
    Color space                              : YUV
    Chroma subsampling                       : 4:2:0
    Bit depth                                : 8 bits
    Scan type                                : Progressive
    Bits/(Pixel*Frame)                       : 0.174
    Stream size                              : 1.85 GiB (96%)
    Writing library                          : x264 core 146 r2538 121396c
    Encoding settings                        : cabac=1 / ref=1 / deblock=1:0:0 / analyse=0x3:0x113 / me=hex / subme=2 / psy=1 / psy_rd=1.00:0.00 / mixed_ref=0 / me_range=16 / chroma_me=1 / trellis=0 / 8x8dct=1 / cqm=0 / deadzone=21,11 / fast_pskip=1 / chroma_qp_offset=0 / threads=9 / lookahead_threads=3 / sliced_threads=0 / nr=0 / decimate=1 / interlaced=0 / bluray_compat=0 / constrained_intra=0 / bframes=3 / b_pyramid=2 / b_adapt=1 / b_bias=0 / direct=1 / weightb=1 / open_gop=0 / weightp=1 / keyint=250 / keyint_min=23 / scenecut=40 / intra_refresh=0 / rc_lookahead=10 / rc=crf / mbtree=1 / crf=17.0 / qcomp=0.60 / qpmin=0 / qpmax=69 / qpstep=4 / ip_ratio=1.40 / aq=1:1.00
    Default                                  : Yes
    Forced                                   : No

    Audio
    ID                                       : 2
    Format                                   : AC-3
    Format/Info                              : Audio Coding 3
    Commercial name                          : Dolby Digital
    Codec ID                                 : A_AC3
    Duration                                 : 30 min 42 s
    Bit rate mode                            : Constant
    Bit rate                                 : 192 kb/s
    Channel(s)                               : 2 channels
    Channel layout                           : L R
    Sampling rate                            : 48.0 kHz
    Frame rate                               : 31.250 FPS (1536 SPF)
    Bit depth                                : 16 bits
    Compression mode                         : Lossy
    Stream size                              : 42.2 MiB (2%)
    Service kind                             : Complete Main
    Default                                  : Yes
    Forced                                   : NoСвернуть


    Внимание, имеется  видео и аудио реклама от спонсора показа

    Похожие раздачи Искать похожие
    Инструкция по скачиванию
     1  Качаем uTorrent версии 2.0 и выше
     2  После установки, жмем выше под постером на ссылку Скачать [MediaGet] или Скачать .torrent
     3  Открываем скачанный файл через соответствующий клиент: MediaGet или uTorrent
     4  Ждем пока подключатся участники
     5  Качаем
    Комментарии о  Футболисты / Игроки / Ballers [Сезон 04 | 01-09 серии из 10] | WEBRip 1080p 
    Ближайшее в кино
    Вверх