• Игры для PS4
  • Игры для PS3
  • Игры для XBOX360
  • Игры для PC
  • Игры для PS2
  • Игры для PSP
  • Для телефонов
  • Музыка
  • Книги / Журналы
  • Обои
  • Опрос
    Удобен ли сайт в использовании?
      0
    • Очень удобен, все понятно1,1,false,300,full
    • Удобен1,2,false,300,full
    • Средне1,3,false,300,full
    • Неудобен, трудно ориентироваться1,4,false,300,full
    • Совсем неудобен1,5,false,300,full
    Статистика
    Всего онлайн -
    Гостей -
    Пользователей -
    Короли трекера
    Благодарности () Закрыть
    Чёрный 47-й / Black "47

    Страна: Ирландия [img]http://st.kp.yandex.net/images/flags/flag-38.gif[/img] Люксембург [img]http://st.kp.yandex.net/images/flags/flag-59.gif[/img]
    Производство: Fastnet Films, Irish Film Board, uMedia Family, Primeridian Entertainment
    Год выпуска: 2018
    Жанр:  боевик, драма
    Продолжительность: 01:39:42

    Режиссер: Лэнс Дэйли
    Авторы сценария: Лэнс Дэйли, Юджин О’Брайэн, П.Дж. Диллон

    В ролях: Хьюго Уивинг, Джеймс Фрешвилл, Стивен Ри, Фредди Фокс, Барри Кеоган, Мо Данфорд, Сара Грин, Джим Бродбент

    Описание: Рейнджер армии Британской империи дезертирует и возвращается домой в Ирландию. Там он узнаёт, что когда он был в армии, в стране разразился ужасающий голод, который унёс жизнь его матери, а его брат был повешен за сопротивление сносу дома. В то же время английские джентльмены, за которых он проливал кровь в далёкой Азии, обогащаются вывозя скудный урожай пшеницы на продажу и обрекают многострадальный народ его родины на вымирание...



    Перевод: Профессиональный (многоголосый, закадровый) | HDrezka Studio
    Субтитры: нет

    Качество: WEB-DLRip
    Формат: AVI
    Видео кодек: XviD
    Аудио кодек: АС3
    Видео: 720x304 (2.35:1), 24.000 fps, XviD ~1 764 kbps avg
    Аудио: 48.0 kHz, AC3 Dolby Digital, 2/0 (L,R) ch, ~192 kbps

    Дата премьеры (мир): 16 февраля 2018

    [img]http://s018.radikal.ru/i522/1609/79/3d079e982089.gif[/img]

    Media Info
    General
    Complete name                  : Black "47 (2018) WEB-DLRip_HDrezka Studio.avi
    Format                         : AVI
    Format/Info                    : Audio Video Interleave
    File size                      : 1.37 GiB
    Duration                       : 1 h 39 min
    Overall bit rate               : 1 966 kb/s
    Writing application            : VirtualDubMod 1.5.10.3 | (build 2550/release)
    Writing library                : VirtualDubMod build 2550/release

    Video
    ID                             : 0
    Format                         : MPEG-4 Visual
    Format profile                 : Advanced Simple@L5
    Format settings, BVOP          : 2
    Format settings, QPel          : No
    Format settings, GMC           : No warppoints
    Format settings, Matrix        : Custom
    Codec ID                       : XVID
    Codec ID/Hint                  : XviD
    Duration                       : 1 h 39 min
    Bit rate                       : 1 764 kb/s
    Width                          : 720 pixels
    Height                         : 304 pixels
    Display aspect ratio           : 2.35:1
    Frame rate                     : 24.000 FPS
    Color space                    : YUV
    Chroma subsampling             : 4:2:0
    Bit depth                      : 8 bits
    Scan type                      : Progressive
    Compression mode               : Lossy
    Bits/(Pixel*Frame)             : 0.336
    Stream size                    : 1.23 GiB (90%)
    Writing library                : XviD 1.2.1 (UTC 2008-12-04)

    Audio
    ID                             : 1
    Format                         : AC-3
    Format/Info                    : Audio Coding 3
    Format settings, Endianness    : Big
    Codec ID                       : 2000
    Duration                       : 1 h 39 min
    Bit rate mode                  : Constant
    Bit rate                       : 192 kb/s
    Channel(s)                     : 2 channels
    Channel positions              : Front: L R
    Sampling rate                  : 48.0 kHz
    Frame rate                     : 31.250 FPS (1536 SPF)
    Bit depth                      : 16 bits
    Compression mode               : Lossy
    Stream size                    : 137 MiB (10%)
    Alignment                      : Split accross interleaves
    Interleave, duration           : 42  ms (1.00 video frame)
    Interleave, preload duration   : 500  ms
    Service kind                   : Complete MainСвернуть


    Скриншоты
    [screen]http://img11.lostpic.net/2018/10/09/a79773c50ce964bff3ab14801d7f32af.jpg[/screen][screen]http://img10.lostpic.net/2018/10/09/ed3b1a86de058f55bbbaacdec4995c5b.jpg[/screen][screen]http://img11.lostpic.net/2018/10/09/96304f34fad7c02f145ade765916bca3.jpg[/screen]Свернуть
    Похожие раздачи Искать похожие
    Инструкция по скачиванию
     1  Качаем uTorrent версии 2.0 и выше
     2  После установки, жмем выше под постером на ссылку Скачать [MediaGet] или Скачать .torrent
     3  Открываем скачанный файл через соответствующий клиент: MediaGet или uTorrent
     4  Ждем пока подключатся участники
     5  Качаем
    Комментарии о  Чёрный 47-й / Black '47 | WEB-DLRip 
    Ближайшее в кино
    Вверх