• Игры для PS4
  • Игры для PS3
  • Игры для XBOX360
  • Игры для PC
  • Игры для PS2
  • Игры для PSP
  • Для телефонов
  • Музыка
  • Книги / Журналы
  • Обои
  • Опрос
    Удобен ли сайт в использовании?
      0
    • Очень удобен, все понятно1,1,false,300,full
    • Удобен1,2,false,300,full
    • Средне1,3,false,300,full
    • Неудобен, трудно ориентироваться1,4,false,300,full
    • Совсем неудобен1,5,false,300,full
    Статистика
    Всего онлайн -
    Гостей -
    Пользователей -
    Короли трекера
    Благодарности () Закрыть
    Информация о фильме
    Название: Склока
    Оригинальное название: La Zizanie
    Год выхода: 1978
    Жанр:  Комедия
    Режиссер: Клод Зиди / Claude Zidi
    В ролях: Луи де Фюнес /Louis De Funes/, Анни Жирардо /Annie Girardot/, Морис Риш /Maurice Risch/, Жюльен Гийомар /Julien Guiomar/, Даниэль Буланже /Daniel Boulanger/

    О фильме:
    Гийом Добрей-Лаказ (Луи де Фюнес), фабрикант и бургомистр, стал автором важнейшего изобретения: он создал прибор для поглощения выхлопных газов. Заключив с японскими бизнесменами контракт на поставку трёх тысяч приборов, перед ним возникла проблема - для производства такого количества нужны дополнительные цеха и рабочие. Гийом пытается уговорить префекта продать ему участок муниципальной земли, граничащий с его фабрикой, но получает отказ, поскольку соседи и так жалуются на его бесконечные изобретения, доставляющие им беспокойство. Остаётся только один выход - расширить фабрику за счёт собственного дома. Постепенно дом фабриканта заполняется станками, от чего его жена Бернадет (Анни Жирардо) далеко не в восторге. Она терпеливо сносит превращение в громыхающие цеха их гостиной и спальни, но когда Гийом жертвует её садом, терпению Бернадет приходит конец, и она отправляется ночевать в гостиницу. Гийому с трудом удаётся уговорить её вернуться. Для этого ему приходится остановить работу своей домашней фабрики. Но когда ранним утром станки снова начинают работать, Бернадет объявляет Гийому войну. Ведь вскоре должны состояться выборы бургомистра, а мсье Добрей является единственным претендентом на этот пост. Чтобы наказать мужа, Бернадет решает выдвинуть свою кандидатуру. Во время выборов выясняется, что японцы, заключившие с Гийомом контракт, банкроты, и чек на два миллиона, выданный ими, пустой. Это означает, что Гийом разорён. К тому же на выборах побеждает Бернадет. Потерять фабрику, пост бургомистра, да ещё и жену - это уж слишком. И тогда Гийом соглашается на условие Бернадет - уехать в провинцию и жить дальше от цивилизации, но ближе к природе.



    Страна: Франция
    Студия: Les Films Christian Fechner, Simar Films
    Продолжительность: 01:36:16
    Перевод: Профессиональный (многоголосый, закадровый)
    Субтитры: отсутствуют

    Файл
    Качество видео: WEB-DL 720p
    Видео: AVC/H.264, 1280x544, ~3923 Kbps
    Аудио 1: AC3, 2 ch, 192 Kbps | русский MVO (НТВ)
    Аудио 2: AC3, 2 ch, 192 Kbps | русский MVO (5 канал)
    Аудио 3: AC3, 2 ch, 192 Kbps | русский MVO (ОРТ)
    Аудио 4: AC3, 2 ch, 192 Kbps | французский

    M/I
    Общее
    Уникальный идентификатор                 : 170480400461042906023769581004934143793 (0x804154B07B72EEC1917A2050D738DF31)
    Полное имя                               : La.Zizanie.1978.WEB-DL.720p.3xRus.Fre.mkv
    Формат                                   : Matroska
    Версия формата                           : Version 4
    Размер файла                             : 3,16 Гбайт
    Продолжительность                        : 1 ч. 36 м.
    Общий поток                              : 4693 Кбит/сек
    Название фильма                          : Склока by D_I_A_B_L_O
    Дата кодирования                         : UTC 2016-09-27 21:32:00
    Программа кодирования                    : mkvmerge v7.2.0 ("On Every Street") 64bit built on Sep 13 2014 15:52:10
    Библиотека кодирования                   : libebml v1.3.0 + libmatroska v1.4.1

    Видео
    Идентификатор                            : 1
    Формат                                   : AVC
    Формат/Информация                        : Advanced Video Codec
    Профиль формата                          : Main@L3.1
    Настройки формата                        : 2 Ref Frames
    Параметр CABAC формата                   : Нет
    Параметр RefFrames формата               : 2 кадра
    Идентификатор кодека                     : V_MPEG4/ISO/AVC
    Продолжительность                        : 1 ч. 36 м.
    Битрейт                                  : 3923 Кбит/сек
    Ширина                                   : 1280 пикселей
    Высота                                   : 544 пикселя
    Соотношение сторон                       : 2,35:1
    Режим частоты кадров                     : Постоянный
    Частота кадров                           : 24,000 кадра/сек
    Цветовое пространство                    : YUV
    Субдискретизация насыщенности            : 4:2:0
    Битовая глубина                          : 8 бит
    Тип развёртки                            : Прогрессивная
    Бит/(Пиксели*Кадры)                      : 0.235
    Размер потока                            : 2,64 Гбайт (84%)
    Заголовок                                : Склока by D_I_A_B_L_O
    Default                                  : Да
    Forced                                   : Нет
    Цветовой диапазон                        : Limited
    Основные цвета                           : BT.709
    Характеристики трансфера                 : BT.709
    Коэффициенты матрицы                     : BT.709

    Аудио #1
    Идентификатор                            : 2
    Формат                                   : AC-3
    Формат/Информация                        : Audio Coding 3
    Коммерческое название                    : Dolby Digital
    Идентификатор кодека                     : A_AC3
    Продолжительность                        : 1 ч. 36 м.
    Вид битрейта                             : Постоянный
    Битрейт                                  : 192 Кбит/сек
    Каналы                                   : 2 канала
    Channel layout                           : L R
    Частота                                  : 48,0 КГц
    Частота кадров                           : 31,250 кадров/сек (1536 SPF)
    Битовая глубина                          : 16 бит
    Метод сжатия                             : С потерями
    Задержка видео                           : 1 с. 750 мс.
    Размер потока                            : 132 Мбайт (4%)
    Заголовок                                : НТВ
    Язык                                     : Russian
    ServiceKind                      : Complete Main
    Default                                  : Да
    Forced                                   : Нет

    Аудио #2
    Идентификатор                            : 3
    Формат                                   : AC-3
    Формат/Информация                        : Audio Coding 3
    Коммерческое название                    : Dolby Digital
    Идентификатор кодека                     : A_AC3
    Продолжительность                        : 1 ч. 36 м.
    Вид битрейта                             : Постоянный
    Битрейт                                  : 192 Кбит/сек
    Каналы                                   : 2 канала
    Channel layout                           : L R
    Частота                                  : 48,0 КГц
    Частота кадров                           : 31,250 кадров/сек (1536 SPF)
    Битовая глубина                          : 16 бит
    Метод сжатия                             : С потерями
    Задержка видео                           : 1 с. 750 мс.
    Размер потока                            : 132 Мбайт (4%)
    Заголовок                                : 5 канал
    Язык                                     : Russian
    ServiceKind                       : Complete Main
    Default                                  : Нет
    Forced                                   : Нет

    Аудио #3
    Идентификатор                            : 4
    Формат                                   : AC-3
    Формат/Информация                        : Audio Coding 3
    Коммерческое название                    : Dolby Digital
    Идентификатор кодека                     : A_AC3
    Продолжительность                        : 1 ч. 36 м.
    Вид битрейта                             : Постоянный
    Битрейт                                  : 192 Кбит/сек
    Каналы                                   : 2 канала
    Channel layout                           : L R
    Частота                                  : 48,0 КГц
    Частота кадров                           : 31,250 кадров/сек (1536 SPF)
    Битовая глубина                          : 16 бит
    Метод сжатия                             : С потерями
    Задержка видео                           : 1 с. 750 мс.
    Размер потока                            : 132 Мбайт (4%)
    Заголовок                                : ОРТ
    Язык                                     : Russian
    ServiceKind                       : Complete Main
    Default                                  : Нет
    Forced                                   : Нет

    Аудио #4
    Идентификатор                            : 5
    Формат                                   : AC-3
    Формат/Информация                        : Audio Coding 3
    Коммерческое название                    : Dolby Digital
    Идентификатор кодека                     : A_AC3
    Продолжительность                        : 1 ч. 36 м.
    Вид битрейта                             : Постоянный
    Битрейт                                  : 192 Кбит/сек
    Каналы                                   : 2 канала
    Channel layout                           : L R
    Частота                                  : 48,0 КГц
    Частота кадров                           : 31,250 кадров/сек (1536 SPF)
    Битовая глубина                          : 16 бит
    Метод сжатия                             : С потерями
    Задержка видео                           : 2 мс.
    Размер потока                            : 132 Мбайт (4%)
    Заголовок                                : Оригинал
    Язык                                     : French
    ServiceKind                       : Complete Main
    Default                                  : Нет
    Forced                                   : НетСвернуть


    Инструкция по скачиванию
     1  Качаем uTorrent версии 2.0 и выше
     2  После установки, жмем выше под постером на ссылку Скачать [MediaGet] или Скачать .torrent
     3  Открываем скачанный файл через соответствующий клиент: MediaGet или uTorrent
     4  Ждем пока подключатся участники
     5  Качаем
    Комментарии о  Склока / La Zizanie | WEB-DL 720p 
    Ближайшее в кино
    Вверх