• Игры для PS4
  • Игры для PS3
  • Игры для XBOX360
  • Игры для PC
  • Игры для PS2
  • Игры для PSP
  • Для телефонов
  • Музыка
  • Книги/Журналы
  • Обои
  •  
    Опрос
    Удобен ли сайт в использовании?
      0
    • Очень удобен, все понятно1,1,false,300,full
    • Удобен1,2,false,300,full
    • Средне1,3,false,300,full
    • Неудобен, трудно ориентироваться1,4,false,300,full
    • Совсем неудобен1,5,false,300,full
    Статистика
    Загрузка...
    Мания величия / La folie des grandeurs | BDRip 1080p
    Статус  Проверено
    В закладки
    Модератор: Max

    Мания величия / La folie des grandeurs | BDRip 1080p [Фильмы 1971] скачать торрентом/torrent бесплатно

    Год выхода
    Категории
    Язык
    Закачал
    Аноним | 09 октября в 10ч 46м 32с
    Раздел
    Отзывов
    0
    Раздают: 4 Качают: 0 Скачали: 7 Размер: 12.07 GB
    Инфо о раздаче | Благодарности |
    0/5
    0
    0 5 0
    Поддержи нас — расскажи друзьям!
    Orbitum
    Новый интернет-браузер Быстрее загружает сайты Экономит интернет—трафик Меняет оформление страницы ВК Блокирует всю рекламу на сайтах Загружает торренты как

    µTorrent

    клиент
    Объеденяет все твои чаты из соц. сетей в один Проигрывает твою музыку не заходя во ВКонтакте
    Скачать и многое другое... Подробности на сайте производителя
    Информация о фильме
    Название: Мания величия
    Оригинальное название: La folie des grandeurs
    Год выхода: 1971
    Жанр:  Комедия
    Режиссер: Жерар Ури
    В ролях: Луи де Фюнес, Ив Монтан, Алиса Саприч, Альберто де Мендоза, Карин Шуберт, Габриэле Тинти, Антонио Пика, Венантино Венантини, Леопольдо Триесте, Поль Пребуа

    О фильме:
    Луи Де Фюнес в роли жадного сборщика налогов, обворовывающего короля. Его слугу Рюи Блаза играет Ив Монтан. Разбитной веселый мошенник постоянно издевается над хозяином и строит ему козни.
    Так он использует неописуемую алчность и жажду лести человека, считающего, что «бедные должны быть бедными, а богатые должны стать еще богаче», и подбивает Де Фюнеса соблазнить испанскую королеву, на которую сам положил глаз…



    Страна: Франция, Италия, Испания, Германия (ФРГ)
    Студия: Gaumont International, Mars Film, Coral Films
    Продолжительность: 01:49:05
    Перевод: Профессиональный (многоголосый, закадровый)
    Субтитры: Русские

    Файл
    Кодек: AVC
    Качество: BDRip 1080p
    Видео: AVC/H.264, 1920х1036, ~14.1 Mbps
    Аудио 1: DTS, 2 ch, 768 Kbps | Русский MVO (R5, DVD Magic)
    Аудио 2: AC3, 2 ch, 192 Kbps | Русский MVO
    Аудио 3: DTS, 2 ch, 768 Kbps | Французский

    M/I
    Общее
    Уникальный идентификатор                 : 250727803625752396560323594209164124040 (0xBCA06B221DD919C1B5424DD2A2D9DF88)
    Полное имя                               : Mania.velichia.1971.x264.BDRip.1080p.HDClub.mkv
    Формат                                   : Matroska
    Версия формата                           : Version 2
    Размер файла                             : 12,1 Гбайт
    Продолжительность                        : 1 ч. 49 м.
    Общий поток                              : 15,8 Мбит/сек
    Название фильма                          : La folie des grandeurs (1971)
    Дата кодирования                         : UTC 2010-07-09 10:25:28
    Программа кодирования                    : mkvmerge v3.4.0 ("Rapunzel") сборка от May 15 2010 09:38:20
    Библиотека кодирования                   : libebml v0.8.0 + libmatroska v0.9.0

    Видео
    Идентификатор                            : 1
    Формат                                   : AVC
    Формат/Информация                        : Advanced Video Codec
    Профиль формата                          : High@L4.1
    Настройки формата                        : CABAC / 4 Ref Frames
    Параметр CABAC формата                   : Да
    Параметр RefFrames формата               : 4 кадра
    Идентификатор кодека                     : V_MPEG4/ISO/AVC
    Продолжительность                        : 1 ч. 49 м.
    Битрейт                                  : 14,1 Мбит/сек
    Ширина                                   : 1920 пикселей
    Высота                                   : 1036 пикселей
    Соотношение сторон                       : 1,85:1
    Режим частоты кадров                     : Постоянный
    Частота кадров                           : 24,000 кадра/сек
    Цветовое пространство                    : YUV
    Субдискретизация насыщенности            : 4:2:0
    Битовая глубина                          : 8 бит
    Тип развёртки                            : Прогрессивная
    Бит/(Пиксели*Кадры)                      : 0.295
    Размер потока                            : 10,5 Гбайт (87%)
    Заголовок                                : Release for  .org
    Библиотека кодирования                   : x264 core 98 r1649 20cbe10
    Настройки программы                      : cabac=1 / ref=4 / deblock=1:-2:-2 / analyse=0x3:0x113 / me=umh / subme=10 / psy=1 / psy_rd=1.00:0.00 / mixed_ref=1 / me_range=64 / chroma_me=1 / trellis=2 / 8x8dct=1 / cqm=0 / deadzone=21,11 / fast_pskip=0 / chroma_qp_offset=-2 / threads=3 / sliced_threads=0 / nr=0 / decimate=1 / interlaced=0 / constrained_intra=0 / bframes=12 / b_pyramid=2 / b_adapt=2 / b_bias=0 / direct=3 / weightb=1 / weightp=2 / keyint=250 / keyint_min=25 / scenecut=40 / intra_refresh=0 / rc_lookahead=60 / rc=2pass / mbtree=1 / bitrate=14100 / ratetol=1.0 / qcomp=0.80 / qpmin=10 / qpmax=51 / qpstep=4 / cplxblur=20.0 / qblur=0.5 / vbv_maxrate=50000 / vbv_bufsize=62500 / ip_ratio=1.40 / aq=1:1.00 / nal_hrd=none
    Язык                                     : French
    Default                                  : Да
    Forced                                   : Нет

    Аудио #1
    Идентификатор                            : 2
    Формат                                   : DTS
    Формат/Информация                        : Digital Theater Systems
    Идентификатор кодека                     : A_DTS
    Продолжительность                        : 1 ч. 49 м.
    Вид битрейта                             : Постоянный
    Битрейт                                  : 768 Кбит/сек
    Каналы                                   : 2 канала
    Channel layout                           : L R
    Частота                                  : 48,0 КГц
    Частота кадров                           : 93,750 кадра/сек (512 SPF)
    Битовая глубина                          : 16 бит
    Метод сжатия                             : С потерями
    Размер потока                            : 599 Мбайт (5%)
    Заголовок                                : Многоголосый закадровый R5, DVD Magic
    Язык                                     : Russian
    Default                                  : Да
    Forced                                   : Нет

    Аудио #2
    Идентификатор                            : 3
    Формат                                   : AC-3
    Формат/Информация                        : Audio Coding 3
    Коммерческое название                    : Dolby Digital
    Идентификатор кодека                     : A_AC3
    Продолжительность                        : 1 ч. 49 м.
    Вид битрейта                             : Постоянный
    Битрейт                                  : 192 Кбит/сек
    Каналы                                   : 2 канала
    Channel layout                           : L R
    Частота                                  : 48,0 КГц
    Частота кадров                           : 31,250 кадров/сек (1536 SPF)
    Битовая глубина                          : 16 бит
    Метод сжатия                             : С потерями
    Размер потока                            : 150 Мбайт (1%)
    Заголовок                                : Многоголосый закадровый
    Язык                                     : Russian
    ServiceKind                      : Complete Main
    Default                                  : Нет
    Forced                                   : Нет

    Аудио #3
    Идентификатор                            : 4
    Формат                                   : DTS
    Формат/Информация                        : Digital Theater Systems
    Идентификатор кодека                     : A_DTS
    Продолжительность                        : 1 ч. 49 м.
    Вид битрейта                             : Постоянный
    Битрейт                                  : 768 Кбит/сек
    Каналы                                   : 2 канала
    Channel layout                           : L R
    Частота                                  : 48,0 КГц
    Частота кадров                           : 93,750 кадра/сек (512 SPF)
    Битовая глубина                          : 16 бит
    Метод сжатия                             : С потерями
    Размер потока                            : 599 Мбайт (5%)
    Заголовок                                : Original French
    Язык                                     : French
    Default                                  : Нет
    Forced                                   : Нет

    Текст
    Идентификатор                            : 5
    Формат                                   : UTF-8
    Идентификатор кодека                     : S_TEXT/UTF8
    Идентификатор кодека/Информация          : UTF-8 Plain Text
    Заголовок                                : Русские субтитры
    Язык                                     : Russian
    Default                                  : Нет
    Forced                                   : Нет


    Еще похожие »

    Как скачать?
    1. Качаем UTorrent версии 2.0 и выше отсюда
    2. После установки, жмем на ссылку Скачать торрент.
    3. Открываем его через utorrent.
    4. Ждем пока подключатся участники.
    5. Качаем.


    Комментарии о Мания величия / La folie des grandeurs | BDRip 1080p
    Добавлять комментарии могут только зарегистрированные пользователи

    Зарегистрироваться или Войти


    Ближайшее в кино
    • Примадонна дата выхода 18 октября 2018Примадонна
      Дата выхода: 18 октября 2018
    • 885317|Ученик чудовища|18 октября 2018|200|300Ученик чудовища
      Дата выхода: 18 октября 2018
    • 472369|Хэллоуин|18 октября 2018|200|300Хэллоуин
      Дата выхода: 18 октября 2018
    • 1005852|Дикая жизнь|18 октября 2018|200|300Дикая жизнь
      Дата выхода: 18 октября 2018
    • 696499|Галвестон|18 октября 2018|200|300Галвестон
      Дата выхода: 18 октября 2018
    • 1111886|Лукас|18 октября 2018|200|300Лукас
      Дата выхода: 18 октября 2018
    • 1045555|Вечная жизнь Александра Христофорова|18 октября 2018|200|300Вечная жизнь Александра Христофорова
      Дата выхода: 18 октября 2018
    • 1112943|Шестой пост|18 октября 2018|200|300Шестой пост
      Дата выхода: 18 октября 2018
    • 1044626|Тайна магазина игрушек|18 октября 2018|200|300Тайна магазина игрушек
      Дата выхода: 18 октября 2018
    • 629086|Лягушонок Риббит|18 октября 2018|200|300Лягушонок Риббит
      Дата выхода: 18 октября 2018
    • 991817|Закат|18 октября 2018|200|300Закат
      Дата выхода: 18 октября 2018
    • 1020860|Безупречная жизнь|18 октября 2018|200|300Безупречная жизнь
      Дата выхода: 18 октября 2018
    • 968603|Зимние братья|18 октября 2018|200|300Зимние братья
      Дата выхода: 18 октября 2018
    • 1008554|Слоны могут играть в футбол|18 октября 2018|200|300Слоны могут играть в футбол
      Дата выхода: 18 октября 2018
    • 939290|Прогулка по Риму|18 октября 2018|200|300Прогулка по Риму
      Дата выхода: 18 октября 2018
    Вверх