• Игры для PS4
  • Игры для PS3
  • Игры для XBOX360
  • Игры для PC
  • Игры для PS2
  • Игры для PSP
  • Для телефонов
  • Музыка
  • Книги / Журналы
  • Обои
  • Опрос
    Откуда Вы о нас узнали?
      0
    • От знакомых2,1,false,300,full
    • Из социальных сетей2,2,false,300,full
    • Из поисковых систем2,3,false,300,full
    • Другое2,4,false,300,full
    Статистика
    Всего онлайн -
    Гостей -
    Пользователей -
    Короли трекера
    
    Благодарности () Закрыть
    Быстрее загружает сайты Экономит интернет—трафик Меняет оформление страницы ВК Блокирует всю рекламу на сайтах Загружает торренты как µTorrent клиент Объеденяет все твои чаты из соц. сетей в один Проигрывает твою музыку не заходя во ВКонтакте
    Новый интернет-браузер
    Orbitum
    Скачать
    и многое другое... Подробности на сайте производителя
    Информация о фильме
    Название: Каратель
    Оригинальное название: The Punisher
    Год выхода: 2017
    Жанр: Фантастика, боевик, триллер, драма, криминал, приключения
    Режиссер: Энди Годдард, Марк Йобст, Кари Скогланд
    В ролях: Джон Бернтал, Джейсон Р. Мур, Эбон Мосс-Бакрак, Майкл Натансон, Джейми Рэй Ньюман, Эмбер Роуз Рева, Пол Шульц, Даниэль Уэббер, Дебора Энн Уолл

    О фильме:
    События сериала разворачиваются вокруг одинокого мужчины Фрэнка, он бывший морской пехотинец, прошедший через несколько горячих точек. Все началось с трагического события что произошли в жизни главного персонажа. Во время прогулки Касла с семьей в парке произошла кровавая перестрелка между группировками. Всех свидетелей постарались убрать и под огонь попали все..Обвинение не смогло доказать вину гангстеров и они вышли на свободу. Именно это и стало крайней точкой становления Карателя, ведь рассчитывать на правосудие не приходилось вообще. Он начинает охоту на городских преступников, которые обречены на смерть, поскольку Каратель никого не оставит безнаказанным...

    [img]http://u.myshows.me/r/49255.png[/img]

    Страна: США
    Студия: Marvel Television
    Продолжительность: 13 x ~ 00:55:00
    Перевод: Профессиональный многоголосый, профессиональный двухголосный

    Файл
    Кодек: H.265
    Качество: WEBRip-HEVC 2160p
    Видео: HEVC HDR, ~ 32.0 Mбит/с, 3840x2160, 23.976 кадр/с
    Звук:
    Русский (AC3, 6 ch, 384 Кбит/с) / Профессиональный многоголосый (LostFilm)
    Русский (AC3, 6 ch, 384 Кбит/с) / Профессиональный многоголосый (NewStudio)
    Русский (AC3, 6 ch, 384 Кбит/с) / Профессиональный многоголосый (AlexFilm)
    Русский (AC3, 6 ch, 384 Кбит/с) / Профессиональный двухголосный (Кубик в Кубе)
    Английский (E-AC3, 6 ch, 640 Кбит/с)
    Субтитры: Русские (Forced, Full), английские (Forced, Full)

    Семпл

    MI
    General
    Unique ID                                : 24084351594756547599065785103822612663 (0x121E7A36694535C260FD3B62EFB7E8B7)
    Complete name                            : C:UsersPublicVideosSample VideosFilmyThe.Punisher.2017.S01.WEBrip.2160p.HDR.MediaClubThe.Punisher.2017.S01E01.WEBrip.2160p.HDR.MediaClub.mkv
    Format                                   : Matroska
    Format version                           : Version 4
    File size                                : 12.1 GiB
    Duration                                 : 51 min 23 s
    Overall bit rate                         : 33.8 Mb/s
    Encoded date                             : UTC 2018-09-30 07:07:18
    Writing application                      : mkvmerge v25.0.0 ("Prog Noir") 64-bit
    Writing library                          : libebml v1.3.6 + libmatroska v1.4.9
    Cover                                    : Yes
    Attachments                              : cover.jpg

    Video
    ID                                       : 1
    Format                                   : HEVC
    Format/Info                              : High Efficiency Video Coding
    Commercial name                          : HDR10
    Format profile                           : Main 10@L5@Main
    Codec ID                                 : V_MPEGH/ISO/HEVC
    Duration                                 : 50 min 25 s
    Bit rate                                 : 32.4 Mb/s
    Width                                    : 3 840 pixels
    Height                                   : 2 160 pixels
    Display aspect ratio                     : 16:9
    Frame rate mode                          : Constant
    Frame rate                               : 23.976 (24000/1001) FPS
    Color space                              : YUV
    Chroma subsampling                       : 4:2:0
    Bit depth                                : 10 bits
    Bits/(Pixel*Frame)                       : 0.163
    Stream size                              : 11.4 GiB (94%)
    Title                                    : WEBRip.2160p.HDR by Silverok
    Writing library                          : x265 2.6+37-1949157705ce:[Windows][GCC 6.3.0][64 bit] 10bit
    Encoding settings                        : cpuid=1050111 / frame-threads=4 / numa-pools=16,0 / wpp / no-pmode / no-pme / no-psnr / no-ssim / log-level=2 / input-csp=1 / input-res=3840x2160 / interlace=0 / total-frames=72548 / level-idc=0 / high-tier=1 / uhd-bd=0 / ref=5 / no-allow-non-conformance / repeat-headers / annexb / no-aud / no-hrd / info / hash=0 / no-temporal-layers / open-gop / min-keyint=23 / keyint=250 / gop-lookahead=0 / bframes=8 / b-adapt=2 / b-pyramid / bframe-bias=0 / rc-lookahead=40 / lookahead-slices=0 / scenecut=40 / radl=0 / no-intra-refresh / ctu=64 / min-cu-size=8 / rect / amp / max-tu-size=32 / tu-inter-depth=3 / tu-intra-depth=3 / limit-tu=4 / rdoq-level=2 / dynamic-rd=0.00 / no-ssim-rd / signhide / no-tskip / nr-intra=0 / nr-inter=0 / no-constrained-intra / strong-intra-smoothing / max-merge=4 / limit-refs=1 / limit-modes / me=3 / subme=5 / merange=57 / temporal-mvp / weightp / weightb / no-analyze-src-pics / deblock=-3:-3 / sao / no-sao-non-deblock / rd=6 / no-early-skip / rskip / no-fast-intra / no-tskip-fast / no-cu-lossless / b-intra / no-splitrd-skip / rdpenalty=0 / psy-rd=2.00 / psy-rdoq=1.00 / no-rd-refine / no-lossless / cbqpoffs=0 / crqpoffs=0 / rc=crf / crf=18.0 / qcomp=0.80 / qpstep=4 / stats-write=0 / stats-read=0 / ipratio=1.40 / pbratio=1.30 / aq-mode=3 / aq-strength=1.00 / cutree / zone-count=0 / no-strict-cbr / qg-size=16 / no-rc-grain / qpmax=69 / qpmin=0 / no-const-vbv / sar=0 / overscan=0 / videoformat=5 / range=0 / colorprim=9 / transfer=16 / colormatrix=9 / chromaloc=0 / display-window=0 / master-display=G(13250,34500)B(7500,3000)R(34000,16000)WP(15635,16450)L(40000000,50) / max-cll=10000,720 / min-luma=0 / max-luma=1023 / log2-max-poc-lsb=8 / vui-timing-info / vui-hrd-info / slices=1 / no-opt-qp-pps / no-opt-ref-list-length-pps / no-multi-pass-opt-rps / scenecut-bias=0.05 / no-opt-cu-delta-qp / no-aq-motion / hdr / hdr-opt / no-dhdr10-opt / analysis-reuse-level=5 / scale-factor=0 / refine-intra=0 / refine-inter=0 / refine-mv=0 / no-limit-sao / ctu-info=0 / no-lowpass-dct / refine-mv-type=0 / copy-pic=1
    Default                                  : Yes
    Forced                                   : No
    Color range                              : Limited
    Color primaries                          : BT.2020
    Transfer characteristics                 : PQ
    Matrix coefficients                      : BT.2020 non-constant
    Mastering display color primaries        : Display P3
    Mastering display luminance              : min: 0.0050 cd/m2, max: 4000 cd/m2
    Maximum Content Light Level              : 10000 cd/m2
    Maximum Frame-Average Light Level        : 720 cd/m2

    Audio #1
    ID                                       : 2
    Format                                   : AC-3
    Format/Info                              : Audio Coding 3
    Commercial name                          : Dolby Digital
    Codec ID                                 : A_AC3
    Duration                                 : 51 min 23 s
    Bit rate mode                            : Constant
    Bit rate                                 : 384 kb/s
    Channel(s)                               : 6 channels
    Channel layout                           : L R C LFE Ls Rs
    Sampling rate                            : 48.0 kHz
    Frame rate                               : 31.250 FPS (1536 SPF)
    Bit depth                                : 16 bits
    Compression mode                         : Lossy
    Stream size                              : 141 MiB (1%)
    Title                                    : Профессиональный многоголосый (LostFilm)
    Language                                 : Russian
    Service kind                             : Complete Main
    Default                                  : Yes
    Forced                                   : No

    Audio #2
    ID                                       : 3
    Format                                   : AC-3
    Format/Info                              : Audio Coding 3
    Commercial name                          : Dolby Digital
    Codec ID                                 : A_AC3
    Duration                                 : 51 min 23 s
    Bit rate mode                            : Constant
    Bit rate                                 : 384 kb/s
    Channel(s)                               : 6 channels
    Channel layout                           : L R C LFE Ls Rs
    Sampling rate                            : 48.0 kHz
    Frame rate                               : 31.250 FPS (1536 SPF)
    Bit depth                                : 16 bits
    Compression mode                         : Lossy
    Stream size                              : 141 MiB (1%)
    Title                                    : Профессиональный многоголосый (NewStudio)
    Language                                 : Russian
    Service kind                             : Complete Main
    Default                                  : No
    Forced                                   : No

    Audio #3
    ID                                       : 4
    Format                                   : AC-3
    Format/Info                              : Audio Coding 3
    Commercial name                          : Dolby Digital
    Codec ID                                 : A_AC3
    Duration                                 : 51 min 23 s
    Bit rate mode                            : Constant
    Bit rate                                 : 384 kb/s
    Channel(s)                               : 6 channels
    Channel layout                           : L R C LFE Ls Rs
    Sampling rate                            : 48.0 kHz
    Frame rate                               : 31.250 FPS (1536 SPF)
    Bit depth                                : 16 bits
    Compression mode                         : Lossy
    Stream size                              : 141 MiB (1%)
    Title                                    : Профессиональный многоголосый (AlexFilm)
    Language                                 : Russian
    Service kind                             : Complete Main
    Default                                  : No
    Forced                                   : No

    Audio #4
    ID                                       : 5
    Format                                   : AC-3
    Format/Info                              : Audio Coding 3
    Commercial name                          : Dolby Digital
    Codec ID                                 : A_AC3
    Duration                                 : 51 min 23 s
    Bit rate mode                            : Constant
    Bit rate                                 : 384 kb/s
    Channel(s)                               : 6 channels
    Channel layout                           : L R C LFE Ls Rs
    Sampling rate                            : 48.0 kHz
    Frame rate                               : 31.250 FPS (1536 SPF)
    Bit depth                                : 16 bits
    Compression mode                         : Lossy
    Stream size                              : 141 MiB (1%)
    Title                                    : профессиональный двухголосый (Кубик в Кубе)
    Language                                 : Russian
    Service kind                             : Complete Main
    Default                                  : No
    Forced                                   : No

    Audio #5
    ID                                       : 6
    Format                                   : E-AC-3 JOC
    Format/Info                              : Enhanced AC-3 with Joint Object Coding
    Commercial name                          : Dolby Digital Plus with Dolby Atmos
    Codec ID                                 : A_EAC3
    Duration                                 : 50 min 30 s
    Bit rate mode                            : Constant
    Bit rate                                 : 448 kb/s
    Channel(s)                               : 6 channels
    Channel layout                           : L R C LFE Ls Rs
    Sampling rate                            : 48.0 kHz
    Frame rate                               : 31.250 FPS (1536 SPF)
    Compression mode                         : Lossy
    Stream size                              : 162 MiB (1%)
    Language                                 : English
    Service kind                             : Complete Main
    Default                                  : No
    Forced                                   : No
    Complexity index                         : 16
    Number of dynamic objects                : 15
    Bed channel count                        : 1 channel
    Bed channel configuration                : LFE

    Text #1
    ID                                       : 7
    Format                                   : ASS
    Codec ID                                 : S_TEXT/ASS
    Codec ID/Info                            : Advanced Sub Station Alpha
    Duration                                 : 46 min 1 s
    Bit rate                                 : 1 b/s
    Count of elements                        : 8
    Compression mode                         : Lossless
    Stream size                              : 606 Bytes (0%)
    Title                                    : Forced
    Language                                 : Russian
    Default                                  : Yes
    Forced                                   : No

    Text #2
    ID                                       : 8
    Format                                   : UTF-8
    Codec ID                                 : S_TEXT/UTF8
    Codec ID/Info                            : UTF-8 Plain Text
    Duration                                 : 48 min 56 s
    Bit rate                                 : 94 b/s
    Count of elements                        : 592
    Stream size                              : 33.7 KiB (0%)
    Title                                    : Full
    Language                                 : Russian
    Default                                  : No
    Forced                                   : No

    Text #3
    ID                                       : 9
    Format                                   : UTF-8
    Codec ID                                 : S_TEXT/UTF8
    Codec ID/Info                            : UTF-8 Plain Text
    Duration                                 : 12 s 638 ms
    Bit rate                                 : 109 b/s
    Count of elements                        : 5
    Stream size                              : 173 Bytes (0%)
    Title                                    : Forced
    Language                                 : English
    Default                                  : No
    Forced                                   : No

    Text #4
    ID                                       : 10
    Format                                   : UTF-8
    Codec ID                                 : S_TEXT/UTF8
    Codec ID/Info                            : UTF-8 Plain Text
    Duration                                 : 48 min 56 s
    Bit rate                                 : 57 b/s
    Count of elements                        : 599
    Stream size                              : 20.5 KiB (0%)
    Title                                    : Full
    Language                                 : English
    Default                                  : No
    Forced                                   : No

    Text #5
    ID                                       : 11
    Format                                   : UTF-8
    Codec ID                                 : S_TEXT/UTF8
    Codec ID/Info                            : UTF-8 Plain Text
    Duration                                 : 48 min 57 s
    Bit rate                                 : 70 b/s
    Count of elements                        : 721
    Stream size                              : 25.3 KiB (0%)
    Title                                    : SDH
    Language                                 : English
    Default                                  : No
    Forced                                   : NoСвернуть


    Скриншоты
    [screen]http://img10.lostpic.net/2018/10/09/7bd9eb4e73f11c80826d97bf555abf28.png[/screen][screen]http://img10.lostpic.net/2018/10/09/50645ba0adc6f57c65b3f8381aa47751.png[/screen][screen]http://img10.lostpic.net/2018/10/09/0a5a66baca78d211fa7aa1617b42ca04.png[/screen][screen]http://img11.lostpic.net/2018/10/09/dc9c42e2f73fb0d0161519c3815c428a.png[/screen][screen]http://img10.lostpic.net/2018/10/09/2d6cd67c46d42ecea7d0f1804e204e32.png[/screen][screen]http://img10.lostpic.net/2018/10/09/ba9c2e321ba681699a8e7a05694c2e48.png[/screen][screen]http://img10.lostpic.net/2018/10/09/ba9c2e321ba681699a8e7a05694c2e48.png[/screen][screen]http://img10.lostpic.net/2018/10/09/172b36a025316c79582449d889acc0cd.png[/screen]Свернуть
    Похожие раздачи Искать похожие
    Инструкция по скачиванию
     1  Качаем uTorrent версии 2.0 и выше
     2  После установки, жмем выше под постером на ссылку Скачать [MediaGet] или Скачать .torrent
     3  Открываем скачанный файл через соответствующий клиент: MediaGet или uTorrent
     4  Ждем пока подключатся участники
     5  Качаем
    Комментарии о  Каратель / The Punisher [Сезон 01] | WEBRip-HEVC 
    Ближайшее в кино
    Вверх