• Игры для PS4
  • Игры для PS3
  • Игры для XBOX360
  • Игры для PC
  • Игры для PS2
  • Игры для PSP
  • Для телефонов
  • Музыка
  • Книги/Журналы
  • Обои
  •  
    Опрос
    Удобен ли сайт в использовании?
      0
    • Очень удобен, все понятно1,1,false,300,full
    • Удобен1,2,false,300,full
    • Средне1,3,false,300,full
    • Неудобен, трудно ориентироваться1,4,false,300,full
    • Совсем неудобен1,5,false,300,full
    Статистика
    Загрузка...
    Динозавр [Серии 01-02 из 10] | HDTV 1080p
    Статус  Проверено
    В закладки
    Модератор: Max

    Динозавр [Серии 01-02 из 10] | HDTV 1080p [Сериалы 2018] скачать торрентом/torrent бесплатно

    Год выхода
    Категории
    Язык
    Закачал
    Аноним | 09 октября в 14ч 52м 54с
    Раздел
    Отзывов
    0
    Раздают: 0 Качают: 0 Скачали: 0 Размер: 4.61 GB
    Инфо о раздаче | Благодарности |
    0/5
    0
    0 5 0
    Поддержи нас — расскажи друзьям!
    Orbitum
    Новый интернет-браузер Быстрее загружает сайты Экономит интернет—трафик Меняет оформление страницы ВК Блокирует всю рекламу на сайтах Загружает торренты как

    µTorrent

    клиент
    Объеденяет все твои чаты из соц. сетей в один Проигрывает твою музыку не заходя во ВКонтакте
    Скачать и многое другое... Подробности на сайте производителя
    Информация о фильме
    Название: Динозавр
    Год выпуска: 2018
    Страна: Россия
    Жанр: комедия, триллер, детектив

    Перевод: Не требуется [Русский]
    Продолжительность: 00:46:43

    Режиссер: Евгений Серов , Всеволод Аравин , Олег Компасов
    В ролях: Андрей Смирнов (криминальный авторитет Семен Тимофеевич Бабушкин), Илья Любимов (Бесовский), Ольга Тумайкина (Вера), Светлана Немоляева (Пуришкевич), Юрий Чурсин (Чёрный человек), Александр Панкратов-Черный (Басня), Инна Чурикова, Борис Комаров («слепой» нищий на вокзале), Вилен Бабичев (телохранитель Бесовского), Александр Берда (Кум), Михаил Мухин (начальник охраны), Александр Арефьев

    Описание:
    Престарелый криминальный авторитет Семен Тимофеевич Бабушкин, о чьем воровском таланте в свое время слагали легенды, последние 35 лет герой не выходил из тюрьмы, предпочитая ее свободе, где у него не осталось ни друзей, ни родных.

    Рейтинг:
    [img]https://u.myshows.me/r/58903.png[/img]

    Качество: HDTV 1080p Запись с[img]https://i4.imageban.ru/out/2018/09/25/df242d942f776ff1964c4cf6132cb291.png[/img]
    Формат: MKV
    Видео: AVC, 1920x1080 (16:9), 7050 kbps, 25 fps, 0,136 bpp
    Аудио: AC3 / 2.0 / 48 kHz / 192 kbps /

    ОтчетМедиаИнфо

    General
    Unique ID                                : 191413183050534761880463275639789277992 (0x9000D68DA3C228A88A719F987E1B5328)
    Complete name                            : E:Запись с твDinozavr 2018.HDTV 1080p.R.G.GeneralfilmDinozavr.s01.e01.2018.HDTV 1080p.by.White Smoke.R.G.Generalfilm.mkv
    Format                                   : Matroska
    Format version                           : Version 4 / Version 2
    File size                                : 2.35 GiB
    Duration                                 : 46 min
    Overall bit rate mode                    : Constant
    Overall bit rate                         : 7 202 kb/s
    Movie name                               : Dinozavr.s01.e01.2018.HDTV 1080p.by.White Smoke.R.G.Generalfilm.mkv
    Encoded date                             : UTC 2018-10-09 10:23:33
    Writing application                      : mkvmerge v6.8.0 ("Theme for Great Cities") 64bit built on Mar  2 2014 21:34:26
    Writing library                          : libebml v1.3.0 + libmatroska v1.4.1
    Cover                                    : Yes
    Attachments                              : COVER.jpg

    Video
    ID                                       : 1
    Format                                   : AVC
    Format/Info                              : Advanced Video Codec
    Format profile                           : High@L4.1
    Format settings, CABAC                   : Yes
    Format settings, ReFrames                : 3 frames
    Format settings, GOP                     : M=3, N=33
    Codec ID                                 : V_MPEG4/ISO/AVC
    Duration                                 : 46 min
    Bit rate mode                            : Constant
    Bit rate                                 : 7 051 kb/s
    Width                                    : 1 920 pixels
    Height                                   : 1 080 pixels
    Display aspect ratio                     : 16:9
    Frame rate mode                          : Constant
    Frame rate                               : 25.000 FPS
    Standard                                 : PAL
    Color space                              : YUV
    Chroma subsampling                       : 4:2:0
    Bit depth                                : 8 bits
    Scan type                                : Progressive
    Bits/(Pixel*Frame)                       : 0.136
    Stream size                              : 2.24 GiB (95%)
    Default                                  : Yes
    Forced                                   : No
    Color range                              : Limited
    Color primaries                          : BT.709
    Transfer characteristics                 : BT.709
    Matrix coefficients                      : BT.709

    Audio
    ID                                       : 2
    Format                                   : AC-3
    Format/Info                              : Audio Coding 3
    Mode extension                           : CM (complete main)
    Format settings, Endianness              : Big
    Codec ID                                 : A_AC3
    Duration                                 : 46 min
    Bit rate mode                            : Constant
    Bit rate                                 : 192 kb/s
    Channel(s)                               : 2 channels
    Channel positions                        : Front: L R
    Sampling rate                            : 48.0 kHz
    Frame rate                               : 31.250 FPS (1536 spf)
    Compression mode                         : Lossy
    Stream size                              : 64.2 MiB (3%)
    Default                                  : Yes
    Forced                                   : No


    Еще похожие »

    Как скачать?
    1. Качаем UTorrent версии 2.0 и выше отсюда
    2. После установки, жмем на ссылку Скачать торрент.
    3. Открываем его через utorrent.
    4. Ждем пока подключатся участники.
    5. Качаем.


    Комментарии о Динозавр [Серии 01-02 из 10] | HDTV 1080p
    Добавлять комментарии могут только зарегистрированные пользователи

    Зарегистрироваться или Войти


    Ближайшее в кино
    • Примадонна дата выхода 18 октября 2018Примадонна
      Дата выхода: 18 октября 2018
    • 885317|Ученик чудовища|18 октября 2018|200|300Ученик чудовища
      Дата выхода: 18 октября 2018
    • 472369|Хэллоуин|18 октября 2018|200|300Хэллоуин
      Дата выхода: 18 октября 2018
    • 1005852|Дикая жизнь|18 октября 2018|200|300Дикая жизнь
      Дата выхода: 18 октября 2018
    • 696499|Галвестон|18 октября 2018|200|300Галвестон
      Дата выхода: 18 октября 2018
    • 1111886|Лукас|18 октября 2018|200|300Лукас
      Дата выхода: 18 октября 2018
    • 1045555|Вечная жизнь Александра Христофорова|18 октября 2018|200|300Вечная жизнь Александра Христофорова
      Дата выхода: 18 октября 2018
    • 1112943|Шестой пост|18 октября 2018|200|300Шестой пост
      Дата выхода: 18 октября 2018
    • 1044626|Тайна магазина игрушек|18 октября 2018|200|300Тайна магазина игрушек
      Дата выхода: 18 октября 2018
    • 629086|Лягушонок Риббит|18 октября 2018|200|300Лягушонок Риббит
      Дата выхода: 18 октября 2018
    • 991817|Закат|18 октября 2018|200|300Закат
      Дата выхода: 18 октября 2018
    • 1020860|Безупречная жизнь|18 октября 2018|200|300Безупречная жизнь
      Дата выхода: 18 октября 2018
    • 968603|Зимние братья|18 октября 2018|200|300Зимние братья
      Дата выхода: 18 октября 2018
    • 1008554|Слоны могут играть в футбол|18 октября 2018|200|300Слоны могут играть в футбол
      Дата выхода: 18 октября 2018
    • 939290|Прогулка по Риму|18 октября 2018|200|300Прогулка по Риму
      Дата выхода: 18 октября 2018
    Вверх