• Игры для PS4
  • Игры для PS3
  • Игры для XBOX360
  • Игры для PC
  • Игры для PS2
  • Игры для PSP
  • Для телефонов
  • Музыка
  • Книги / Журналы
  • Обои
  • Опрос
    Откуда Вы о нас узнали?
      0
    • От знакомых2,1,false,300,full
    • Из социальных сетей2,2,false,300,full
    • Из поисковых систем2,3,false,300,full
    • Другое2,4,false,300,full
    Статистика
    Всего онлайн -
    Гостей -
    Пользователей -
    Короли трекера
    Благодарности () Закрыть
    Информация о фильме
    Название: Аризона
    Оригинальное название: Arizona
    Год выхода: 2018
    Жанр: Триллер, комедия, криминал
    Режиссер: Джонатан Уотсон
    В ролях: Элизабет Гиллис, Дэнни МакБрайд, Кэйтлин Олсон, Розмари ДеУитт, Люк Уилсон, Дэвид Алан Грир, Трэвис Хаммер, Каллен Мосс, Джейд Каммерман, Одри Уолтерс

    О фильме:
    Кесси, агент по продаже недвижимости и мать-одиночка, пытается справиться с жилищным кризисом 2009 года. Ситуация только ухудшается, когда в ее жизнь врывается недовольный клиент Сонни, чьи действия приносят только разрушение и смерть.



    Страна: США
    Студия: Imperative Entertainment, Rough House Pictures
    Продолжительность: 01:23:37
    Перевод: Профессиональный многоголосый | HDRezka Studio

    Файл
    Кодек: x.264
    Качество: BDRip 1080p | Arizona.2018.1080p.BluRay.x264-ROVERS
    Видео: MPEG-4 AVC, 1920x808, 9717 Kбит/с, 23.976 кадр/с
    Аудио #1: Русский ( АС3, 2ch, 192 Кбит/с, 48.0 KHz) Профессиональный (многоголосый, закадровый) HDRezka Studio
    Аудио #1: Английский ( DTS, 6ch, 1510 Кбит/с, 48.0 KHz)
    Субтитры: английские
    MediaInfo
    Источник: Arizona.2018.1080p.BluRay.x264-ROVERS
    General
    Unique ID                      : 234398918664511601767092326090897517702 (0xB05796F2917604B6A9A41C5CF4AE6C86)
    Complete name                  : Arizona.2018.BDRip.1080p.mkv
    Format                         : Matroska
    Format version                 : Version 4 / Version 2
    File size                      : 6.67 GiB
    Duration                       : 1h 23mn
    Overall bit rate               : 11.4 Mbps
    Encoded date                   : UTC 2018-10-04 21:55:05
    Writing application            : mkvmerge v7.1.0 ("Good Love") 64bit built on Jul 27 2014 13:06:55
    Writing library                : libebml v1.3.0 + libmatroska v1.4.1

    Video
    ID                             : 1
    Format                         : AVC
    Format/Info                    : Advanced Video Codec
    Format profile                 : High@L4.1
    Format settings, CABAC         : Yes
    Format settings, ReFrames      : 5 frames
    Codec ID                       : V_MPEG4/ISO/AVC
    Duration                       : 1h 23mn
    Bit rate                       : 9 717 Kbps
    Width                          : 1 920 pixels
    Height                         : 808 pixels
    Display aspect ratio           : 2.40:1
    Frame rate mode                : Constant
    Frame rate                     : 23.976 (24000/1001) fps
    Color space                    : YUV
    Chroma subsampling             : 4:2:0
    Bit depth                      : 8 bits
    Scan type                      : Progressive
    Bits/(Pixel*Frame)             : 0.261
    Stream size                    : 5.67 GiB (85%)
    Writing library                : x264 core 157 r2932 303c484
    Encoding settings              : cabac=1 / ref=5 / deblock=1:-3:-3 / analyse=0x3:0x133 / me=umh / subme=8 / psy=1 / psy_rd=1.00:0.00 / mixed_ref=1 / me_range=16 / chroma_me=1 / trellis=1 / 8x8dct=1 / cqm=0 / deadzone=21,11 / fast_pskip=0 / chroma_qp_offset=-2 / threads=25 / lookahead_threads=4 / sliced_threads=0 / nr=0 / decimate=1 / interlaced=0 / bluray_compat=0 / constrained_intra=0 / bframes=3 / b_pyramid=2 / b_adapt=1 / b_bias=0 / direct=3 / weightb=1 / open_gop=0 / weightp=2 / keyint=250 / keyint_min=23 / scenecut=40 / intra_refresh=0 / rc_lookahead=50 / rc=2pass / mbtree=1 / bitrate=9717 / ratetol=1.0 / qcomp=0.60 / qpmin=0 / qpmax=69 / qpstep=4 / cplxblur=20.0 / qblur=0.5 / vbv_maxrate=62500 / vbv_bufsize=78125 / nal_hrd=none / filler=0 / ip_ratio=1.40 / aq=1:1.00
    Language                       : English
    Default                        : Yes
    Forced                         : No

    Audio #1
    ID                             : 2
    Format                         : AC-3
    Format/Info                    : Audio Coding 3
    Mode extension                 : CM (complete main)
    Format settings, Endianness    : Big
    Codec ID                       : A_AC3
    Duration                       : 1h 23mn
    Bit rate mode                  : Constant
    Bit rate                       : 192 Kbps
    Channel(s)                     : 2 channels
    Channel positions              : Front: L R
    Sampling rate                  : 48.0 KHz
    Frame rate                     : 31.250 fps (1536 spf)
    Compression mode               : Lossy
    Stream size                    : 115 MiB (2%)
    Title                          : MVO | HDRezka Studio
    Language                       : Russian
    Default                        : Yes
    Forced                         : No

    Audio #2
    ID                             : 3
    Format                         : DTS
    Format/Info                    : Digital Theater Systems
    Mode                           : 16
    Format settings, Endianness    : Big
    Codec ID                       : A_DTS
    Duration                       : 1h 23mn
    Bit rate mode                  : Constant
    Bit rate                       : 1 509 Kbps
    Channel(s)                     : 6 channels
    Channel positions              : Front: L C R, Side: L R, LFE
    Sampling rate                  : 48.0 KHz
    Frame rate                     : 93.750 fps (512 spf)
    Bit depth                      : 24 bits
    Compression mode               : Lossy
    Stream size                    : 902 MiB (13%)
    Language                       : English
    Default                        : No
    Forced                         : No

    Text
    ID                             : 4
    Format                         : UTF-8
    Codec ID                       : S_TEXT/UTF8
    Codec ID/Info                  : UTF-8 Plain Text
    Duration                       : 1h 16mn
    Bit rate                       : 69 bps
    Count of elements              : 1264
    Stream size                    : 39.3 KiB (0%)
    Language                       : English
    Default                        : No
    Forced                         : No

    Menu
    00:00:00.000                   : en:00:00:00.000
    00:07:18.521                   : en:00:07:18.521
    00:10:10.318                   : en:00:10:10.318
    00:27:36.363                   : en:00:27:36.363
    00:39:34.747                   : en:00:39:34.747
    00:51:14.363                   : en:00:51:14.363
    01:00:35.924                   : en:01:00:35.924
    01:09:37.965                   : en:01:09:37.965
    01:13:21.188                   : en:01:13:21.188
    01:18:49.141                   : en:01:18:49.141
    Свернуть


    Похожие раздачи Искать похожие
    Инструкция по скачиванию
     1  Качаем uTorrent версии 2.0 и выше
     2  После установки, жмем выше под постером на ссылку Скачать [MediaGet] или Скачать .torrent
     3  Открываем скачанный файл через соответствующий клиент: MediaGet или uTorrent
     4  Ждем пока подключатся участники
     5  Качаем
    Комментарии о  Аризона / Arizona | BDRip 1080p 
    Ближайшее в кино
    Вверх