• Игры для PS4
  • Игры для PS3
  • Игры для XBOX360
  • Игры для PC
  • Игры для PS2
  • Игры для PSP
  • Для телефонов
  • Музыка
  • Книги / Журналы
  • Обои
  • Опрос
    Откуда Вы о нас узнали?
      0
    • От знакомых2,1,false,300,full
    • Из социальных сетей2,2,false,300,full
    • Из поисковых систем2,3,false,300,full
    • Другое2,4,false,300,full
    Статистика
    Всего онлайн -
    Гостей -
    Пользователей -
    Короли трекера
    Благодарности () Закрыть
    Информация о фильме
    Название: Падение Трои
    Оригинальное название: Troy: Fall of a City
    Год выпуска: 2018
    Жанр:  фэнтези, боевик, мелодрама, приключения, военный
    Страна: Великобритания, США, ЮАР, Австралия
    Режиссер: Марк Брозел, Оуэн Харрис
    В ролях: Луис Хантер, Белла Дэйн, Дэвид Трелфолл, Фрэнсис О`Коннор, Том Уэстон-Джонс, Джозеф Моул, Джонас Армстронг, Хлоя Пирри, Джонни Харрис, Дэвид Гяси, Эйми-Ффион Эдвардс, Кристиан Шумби, Карл Бьюкс, Гарт Брейтенбах, Лекс Кинг

    О фильме: В центре событий грандиозной эпопеи - десятилетняя осада ахейцами великой Трои. Это история любви, мужества, интриг и предательства, рассказанная от лица царской семьи. Это история о людях, старающихся сохранить достоинство и сострадание в условиях кровопролитной войны.



    Файл
    Качество: HDRip 1080p
    Видео данные: MKV, 1920x960 (2.000), 23.976 fps, 7448 Кбит/с
    Аудио данные: AC3, 2 ch, 192 Кбит/с
    Перевод: Любительский многоголосый (GreenРай Studio)
    Продолжительность: 8 x 01:00:00

    Медиаинфо
    General
    Unique ID                                : 198247056013110599789514056379198628166 (0x9524FE8105BF36E290AD76B36A3C6146)
    Complete name                            : C:Troy.Fall.of.a.City.S01.BDRip.1080pTroy.Fall.of.a.City.S01E01.BDRip.1080p.mkv
    Format                                   : Matroska
    Format version                           : Version 4
    File size                                : 3.30 GiB
    Duration                                 : 1 h 0 min
    Overall bit rate                         : 7 795 kb/s
    Encoded date                             : UTC 2018-10-09 06:09:11
    Writing application                      : mkvmerge v6.5.0 ("Isn"t she lovely") built on Oct 20 2013 12:50:05
    Writing library                          : libebml v1.3.0 + libmatroska v1.4.1

    Video
    ID                                       : 1
    Format                                   : AVC
    Format/Info                              : Advanced Video Codec
    Format profile                           : High@L3.1
    Format settings                          : CABAC / 4 Ref Frames
    Format settings, CABAC                   : Yes
    Format settings, RefFrames               : 4 frames
    Codec ID                                 : V_MPEG4/ISO/AVC
    Duration                                 : 1 h 0 min
    Bit rate                                 : 7 448 kb/s
    Width                                    : 1 920 pixels
    Height                                   : 960 pixels
    Display aspect ratio                     : 2.000
    Frame rate mode                          : Constant
    Frame rate                               : 25.000 FPS
    Color space                              : YUV
    Chroma subsampling                       : 4:2:0
    Bit depth                                : 8 bits
    Scan type                                : Progressive
    Bits/(Pixel*Frame)                       : 0.162
    Stream size                              : 3.15 GiB (96%)
    Writing library                          : x264 core 146 r2538 121396c
    Encoding settings                        : cabac=1 / ref=1 / deblock=1:0:0 / analyse=0x3:0x113 / me=hex / subme=2 / psy=1 / psy_rd=1.00:0.00 / mixed_ref=0 / me_range=16 / chroma_me=1 / trellis=0 / 8x8dct=1 / cqm=0 / deadzone=21,11 / fast_pskip=1 / chroma_qp_offset=0 / threads=9 / lookahead_threads=3 / sliced_threads=0 / nr=0 / decimate=1 / interlaced=0 / bluray_compat=0 / constrained_intra=0 / bframes=3 / b_pyramid=2 / b_adapt=1 / b_bias=0 / direct=1 / weightb=1 / open_gop=0 / weightp=1 / keyint=250 / keyint_min=25 / scenecut=40 / intra_refresh=0 / rc_lookahead=10 / rc=crf / mbtree=1 / crf=16.0 / qcomp=0.60 / qpmin=0 / qpmax=69 / qpstep=4 / ip_ratio=1.40 / aq=1:1.00
    Default                                  : Yes
    Forced                                   : No

    Audio
    ID                                       : 2
    Format                                   : AC-3
    Format/Info                              : Audio Coding 3
    Commercial name                          : Dolby Digital
    Codec ID                                 : A_AC3
    Duration                                 : 1 h 0 min
    Bit rate mode                            : Constant
    Bit rate                                 : 192 kb/s
    Channel(s)                               : 2 channels
    Channel layout                           : L R
    Sampling rate                            : 48.0 kHz
    Frame rate                               : 31.250 FPS (1536 SPF)
    Bit depth                                : 16 bits
    Compression mode                         : Lossy
    Stream size                              : 83.2 MiB (2%)
    Service kind                             : Complete Main
    Default                                  : Yes
    Forced                                   : No
    Свернуть


    Внимание, имеется  видео и аудио реклама от спонсора показа

    Инструкция по скачиванию
     1  Качаем uTorrent версии 2.0 и выше
     2  После установки, жмем выше под постером на ссылку Скачать [MediaGet] или Скачать .torrent
     3  Открываем скачанный файл через соответствующий клиент: MediaGet или uTorrent
     4  Ждем пока подключатся участники
     5  Качаем
    Комментарии о  Падение Трои / Troy: Fall of a City [Сезон 01] | HDRip 1080p 
    Ближайшее в кино
    Вверх