• Игры для PS4
  • Игры для PS3
  • Игры для XBOX360
  • Игры для PC
  • Игры для PS2
  • Игры для PSP
  • Для телефонов
  • Музыка
  • Книги / Журналы
  • Обои
  • Опрос
    Удобен ли сайт в использовании?
      0
    • Очень удобен, все понятно1,1,false,300,full
    • Удобен1,2,false,300,full
    • Средне1,3,false,300,full
    • Неудобен, трудно ориентироваться1,4,false,300,full
    • Совсем неудобен1,5,false,300,full
    Статистика
    Всего онлайн -
    Гостей -
    Пользователей -
    Короли трекера
    Благодарности () Закрыть
    Информация о фильме
    Название: Загадочный пассажир / Поезд
    Оригинальное название: Pociag
    Год выхода: 1959
    Жанр: Драма, Триллер, Детектив
    Режиссер: Ежи Кавалерович /Jerzy Kawalerowicz
    В ролях: Леон Немчик /Leon Niemczyk/, Люцина Винницка /Lucyna Winnicka/, Збигнев Цибульский /Zbigniew Cybulski/, Тереза Шмигелювна /Teresa Szmigielowna/, Хелена Дабровска /Helena Dabrowska/

    О фильме:
    Один из ведущих режиссеров "Польской школы" 1950-х и 1960-х годов снял великолепный психологический триллер, все действие которого, как можно догодаться по названию, происходит в поезде. Женщина купила с рук у мужчины билет на 16-е место, а в купе ей уступил свою нижнюю полку очень неразговорчивый человек в темных очках. Еще до отхода поезда пассажиры обсуждали газетную статью о муже, убившем свою жену и сбежавшем. Ночью поезд останвливают, и полицейские задерживают неразговорчивого мужчину в темных очках с 16-го места, а женщина, которой он уступил место, проходит в общий вагон к давно преследующему ее любовнику и видит мужчину, продавшего ей с рук билет...



    Страна: Польша
    Продолжительность: 01:37:10
    Перевод: Профессиональный (полное дублирование)

    Файл
    Кодек: XviD
    Качество: BDRip
    Формат: AVI
    Аудио кодек: AC3
    Видео: 720x544 (1.32:1), 23.976 fps, XviD build 65 ~1759 kbps avg, 0.19 bit/pixel
    Аудио: 48 kHz, AC3 Dolby Digital, 2/0 (L,R) ch, ~192.00 kbps avg - рус
    Аудио: 48 kHz, AC3 Dolby Digital, 2/0 (L,R) ch, ~192.00 kbps avg - пол
    Русские субтитры: есть



    Медиаинфо

    General
    Complete name                    : H:03 by_bm11zagadochnyi_passazhir_1.46_[torrents.ru]_by_bm11.avi
    Format                           : AVI
    Format/Info                      : Audio Video Interleave
    File size                        : 1.46 GiB
    Duration                         : 1h 37mn
    Overall bit rate                 : 2 157 Kbps
    Director                         : bm11
    Writing application              : VirtualDubMod 1.5.10.2 (build 2540/release)

    Video
    ID                               : 0
    Format                           : MPEG-4 Visual
    Format profile                   : Advanced Simple@L5
    Format settings, BVOP            : Yes
    Format settings, QPel            : No
    Format settings, GMC             : No warppoints
    Format settings, Matrix          : Custom
    Codec ID                         : XVID
    Codec ID/Hint                    : XviD
    Duration                         : 1h 37mn
    Bit rate                         : 1 760 Kbps
    Width                            : 720 pixels
    Height                           : 544 pixels
    Display aspect ratio             : 4:3
    Frame rate                       : 23.976 fps
    Color space                      : YUV
    Chroma subsampling               : 4:2:0
    Bit depth                        : 8 bits
    Scan type                        : Progressive
    Bits/(Pixel*Frame)               : 0.187
    Stream size                      : 1.19 GiB (82%)
    Writing library                  : XviD 65

    Audio #1
    ID                               : 1
    Format                           : AC-3
    Format/Info                      : Audio Coding 3
    Mode extension                   : CM (complete main)
    Codec ID                         : 2000
    Duration                         : 1h 37mn
    Bit rate mode                    : Constant
    Bit rate                         : 192 Kbps
    Channel(s)                       : 2 channels
    Channel positions                : Front: L R
    Sampling rate                    : 48.0 KHz
    Bit depth                        : 16 bits
    Stream size                      : 133 MiB (9%)
    Alignment                        : Split accross interleaves
    Interleave, duration             : 42 ms (1.00 video frame)
    Interleave, preload duration     : 500 ms

    Audio #2
    ID                               : 2
    Format                           : AC-3
    Format/Info                      : Audio Coding 3
    Mode extension                   : CM (complete main)
    Codec ID                         : 2000
    Duration                         : 1h 37mn
    Bit rate mode                    : Constant
    Bit rate                         : 192 Kbps
    Channel(s)                       : 2 channels
    Channel positions                : Front: L R
    Sampling rate                    : 48.0 KHz
    Bit depth                        : 16 bits
    Stream size                      : 133 MiB (9%)
    Alignment                        : Split accross interleaves
    Interleave, duration             : 42 ms (1.00 video frame)
    Interleave, preload duration     : 500 ms

    Свернуть
    Похожие раздачи Искать похожие
    Инструкция по скачиванию
     1  Качаем uTorrent версии 2.0 и выше
     2  После установки, жмем выше под постером на ссылку Скачать [MediaGet] или Скачать .torrent
     3  Открываем скачанный файл через соответствующий клиент: MediaGet или uTorrent
     4  Ждем пока подключатся участники
     5  Качаем
    Комментарии о  Загадочный пассажир / Поезд / Pociag | BDRip 
    Ближайшее в кино
    Вверх