• Игры для PS4
  • Игры для PS3
  • Игры для XBOX360
  • Игры для PC
  • Игры для PS2
  • Игры для PSP
  • Для телефонов
  • Музыка
  • Книги / Журналы
  • Обои
  • Опрос
    Откуда Вы о нас узнали?
      0
    • От знакомых2,1,false,300,full
    • Из социальных сетей2,2,false,300,full
    • Из поисковых систем2,3,false,300,full
    • Другое2,4,false,300,full
    Статистика
    Всего онлайн -
    Гостей -
    Пользователей -
    Короли трекера
    Благодарности () Закрыть
    Страна: СССР
    Производство: Киностудия им. Горького

    Жанр:  военный
    Год выпуска: 1961
    Продолжительность: 01:35:15

    Перевод: Не требуется
    Cубтитры: нет
    Оригинальная аудиодорожка: русский

    Режиссер: Илья Гурин

    В ролях:
    Владимир Кашпур, Светлана Харитонова, Юрий Назаров, Нина Магер, Владимир Заманский, Игорь Кваша, Татьяна Гаврилова, Игорь Охлупин, Лидия Савченко, Геннадий Сайфулин...

    Описание:
    1941 год. Плотник-сибиряк Кузьма Кройков (Владимир Кашпур) прибыл в Москву в составе стрелковой роты. В шеренге бойцов он прошел по улочкам ночной Москвы и в подмосковном селе познакомился с Варварой Окновой (Светлана Харитонова). Решительная, высокая и красивая она покорила его сердце. Но вскоре начались затяжные страшные бои за Москву...

    [img]http://picplus.ru/img/1810/08/eb7b582a.png[/img]
    [img]http://new-team.org/images/sample_video.png[/img]

    Источник: DVD5 R5
    Качество видео: DVDRip
    Формат видео: AVI

    Видео: 672х496 (4:3), 25 fps, XviD ~ 1434 kbps avg, 0.172 bit/pixel
    Аудио: 48 kHz, Dolby Digital AC3 2.0, 192 kbps

    MediaInfo

    Общее
    Полное имя                               : V.trudnyy.chas.1961.DVDRip_[New-team]_by_AVP_Studio.avi
    Формат                                   : AVI
    Формат/Информация                        : Audio Video Interleave
    Размер файла                             : 1,09 Гбайт
    Продолжительность                        : 1 ч. 35 м.
    Общий поток                              : 1635 Кбит/сек
    Программа кодирования                    : VirtualDubMod 1.5.10.3 | www.virtualdub-fr.org || (build 2550/release)
    Библиотека кодирования                   : VirtualDubMod build 2550/release

    Видео
    Идентификатор                            : 0
    Формат                                   : MPEG-4 Visual
    Профиль формата                          : Advanced Simple@L5
    Настройки формата                        : BVOP1 / Custom Matrix
    Параметр BVOP формата                    : 1
    Параметр QPel формата                    : Нет
    Параметр GMC формата                     : Без точки перехода
    Параметр матрицы формата                 : Выборочная
    Идентификатор кодека                     : XVID
    Идентификатор кодека/Подсказка           : XviD
    Продолжительность                        : 1 ч. 35 м.
    Битрейт                                  : 1434 Кбит/сек
    Ширина                                   : 672 пикселя
    Высота                                   : 496 пикселей
    Соотношение сторон                       : 4:3
    Частота кадров                           : 25,000 кадров/сек
    Цветовое пространство                    : YUV
    Субдискретизация насыщенности            : 4:2:0
    Битовая глубина                          : 8 бит
    Тип развёртки                            : Прогрессивная
    Метод сжатия                             : С потерями
    Бит/(Пиксели*Кадры)                      : 0.172
    Размер потока                            : 977 Мбайт (88%)
    Библиотека кодирования                   : XviD 73

    Аудио
    Идентификатор                            : 1
    Формат                                   : AC-3
    Формат/Информация                        : Audio Coding 3
    Коммерческое название                    : Dolby Digital
    Идентификатор кодека                     : 2000
    Продолжительность                        : 1 ч. 35 м.
    Вид битрейта                             : Постоянный
    Битрейт                                  : 192 Кбит/сек
    Каналы                                   : 2 канала
    Channel layout                           : L R
    Частота                                  : 48,0 КГц
    Частота кадров                           : 31,250 кадров/сек (1536 SPF)
    Битовая глубина                          : 16 бит
    Метод сжатия                             : С потерями
    Размер потока                            : 131 Мбайт (12%)
    Выравнивание                             : Разделение по промежуткам
    Продолжительность промежутка             : 40  мс. (1,00 видеокадр)
    Время предзагрузки промежутка            : 500  мс
    Свернуть


    Похожие раздачи Искать похожие
    Инструкция по скачиванию
     1  Качаем uTorrent версии 2.0 и выше
     2  После установки, жмем выше под постером на ссылку Скачать [MediaGet] или Скачать .torrent
     3  Открываем скачанный файл через соответствующий клиент: MediaGet или uTorrent
     4  Ждем пока подключатся участники
     5  Качаем
    Комментарии о  В трудный час | DVDRip 
    Ближайшее в кино
    Вверх