• Игры для PS4
  • Игры для PS3
  • Игры для XBOX360
  • Игры для PC
  • Игры для PS2
  • Игры для PSP
  • Для телефонов
  • Музыка
  • Книги / Журналы
  • Обои
  • Опрос
    Удобен ли сайт в использовании?
      0
    • Очень удобен, все понятно1,1,false,300,full
    • Удобен1,2,false,300,full
    • Средне1,3,false,300,full
    • Неудобен, трудно ориентироваться1,4,false,300,full
    • Совсем неудобен1,5,false,300,full
    Статистика
    Всего онлайн -
    Гостей -
    Пользователей -
    Короли трекера
    Благодарности () Закрыть
    Информация о фильме
    Название: Газонокосильщик
    Оригинальное название: The Lawnmower Man
    Год выхода: 1992
    Жанр:  Ужасы, фантастика
    Режиссер: Бретт Леонард / Brett Leonard
    В ролях: Джефф Фэйи / Jeff Fahey, Пирс Броснан / Pierce Brosnan, Дженни Райт / Jenny Wright, Марк Бринглсон / Mark Bringleson, Джеффри Льюис / Geoffrey Lewis, Джереми Слейт / Jeremy Slate, Дин Норрис / Dean Norris, Коллин Коффи / Colleen Coffey, Джим Лэндис / Jim Landis, Трой Эванс / Troy Evans, Розали Майокс / Rosalee Mayeux

    О фильме:
    Молодой талантливый ученый Трэйс ставит над умственно неполноценным косильщиком лужаек Джоубом эксперименты с использованием высоких компьютерных технологий в комбинации с наркотиками. Трэйс внедряет Джоуба в виртуальную реальность — трехмерный компьютерный мир. Ученому удается развить умственные способности вчерашнего недоумка до супергения. Но в ход эксперимента тайно вмешиваются военные, и испытуемый превращается в сверхинтеллектуального монстра-психопата в человеческом облике, у которого возникают претензии на мировое господство.



    Страна: Великобритания, США, Япония
    Студия: Allied Vision, Fuji Eight Company Ltd., Lane Pringle Productions
    Продолжительность: 2:20:53
    Перевод:: Профессиональный (многоголосый закадровый) |R5 от Lizard|

    Файл
    Кодек: H.264
    Качество: BDRip 720p [The. Lawnmower. Man.1992.Dir.Cut.1080p.BDRemux.HDCLUB]
    Видео: MPEG-4 AVC, 1280x692, 23.976 fps, ~8881 kbit/s
    Аудио №1: RUS: AC3 5.1, ~640 kbit/s, 48 kHz
    Аудио №2: ENG: AC3 5.1, ~640 kbit/s, 48 kHz
    Субтитры: Русские, английские

    M/I
    x264 info: frame I:387   Avg QP:16.10  size:180405
    x264 info: frame P:11359 Avg QP:17.30  size: 99297
    x264 info: frame B:46185 Avg QP:19.15  size: 56316
    x264 info: consecutive B-frames:  1.2%  1.4%  5.7% 15.0% 16.8% 45.3%  7.4%  2.7%  1.4%  1.2%  0.6%  0.6%  0.7%

    General
    Unique ID                   : 235242794621044990588165597427953830229 (0xB0FA1D3E956A14421C8D421819580955)
    Complete name               : F:Газонокосильщик.(1992).BLU-RAY.720p.[-=DoMiNo=-].mkv
    Format                      : Matroska
    Format version              : Version 4 / Version 2
    File size                   : 10.2 GiB
    Duration                    : 2 h 20 min
    Overall bit rate            : 10.4 Mb/s
    Movie name                  : Газонокосильщик
    Attachments                 : poster.jpg
    ACTORS                      : Джефф Фэйи, Пирс Броснан, Дженни Райт, Марк Бринглсон, Джеффри Льюис, Джереми Слейт, Дин Норрис, Коллин Коффи, Джим Лэндис, Трой Эванс, Розали Майю, Остин О’Брайен, Майкл Грегори, Джо Харт, Джон Лофлин, Рэй Лайкинс, Майкл Вальверде, Дэйл Рауль, Фрэнк Коллисон, Джон Смарт, Стефен Грегори Фостер, Даг Хатчисон, Денни Пирс, Роджер Рук, Крэйг Бентон, Рэндолл Фонтана, Мара Дуронслет, Дуан Бирн, Брюс Е. Холман, Дэррелл Мапсон
    COMPOSER                    : Дэн Уаймен
    COUNTRY                     : Великобритания, США, Япония
    DATE                        : 1992
    DIRECTOR                    : Бретт Леонард
    GENRE                       : ужасы, фантастика
    IMDB_RATING                 : 5.40
    ITUNEXTC                    : mpaa|R|400|
    MEDIA_TYPE                  : 9
    ORIGINAL_TITLE              : The Lawnmower Man
    PRODUCER                    : Гаймел Эверет, Стивен А. Лэйн, Питер А. МакРей, Роберт Прингл, Эдвард Саймонс, Милтон Суботски, Масао Такияма, Клайв Тернер
    RATING                      : 6.643
    WRITER                      : Бретт Леонард, Гаймел Эверет

    Video
    ID                          : 1
    Format                      : AVC
    Format/Info                 : Advanced Video Codec
    Format profile              : High@L4.1
    Format settings, CABAC      : Yes
    Format settings, ReFrames   : 9 frames
    Codec ID                    : V_MPEG4/ISO/AVC
    Duration                    : 2 h 20 min
    Bit rate                    : 8 881 kb/s
    Width                       : 1 280 pixels
    Height                      : 692 pixels
    Display aspect ratio        : 1.85:1
    Frame rate mode             : Constant
    Frame rate                  : 23.976 (24000/1001) FPS
    Color space                 : YUV
    Chroma subsampling          : 4:2:0
    Bit depth                   : 8 bits
    Scan type                   : Progressive
    Bits/(Pixel*Frame)          : 0.418
    Stream size                 : 8.74 GiB (86%)
    Title                       : BLU-RAY_720p_RIP_BY_-=DoMiNo=-
    Writing library             : x264 core 150 r2833M df79067
    Encoding settings           : cabac=1 / ref=9 / deblock=1:-3:-3 / analyse=0x3:0x133 / me=umh / subme=11 / psy=1 / psy_rd=1.00:0.10 / mixed_ref=1 / me_range=48 / chroma_me=1 / trellis=2 / 8x8dct=1 / cqm=0 / deadzone=21,11 / fast_pskip=0 / chroma_qp_offset=-3 / threads=6 / lookahead_threads=1 / sliced_threads=0 / nr=0 / decimate=1 / interlaced=0 / bluray_compat=0 / constrained_intra=0 / bframes=12 / b_pyramid=2 / b_adapt=2 / b_bias=0 / direct=3 / weightb=1 / open_gop=0 / weightp=2 / keyint=230 / keyint_min=23 / scenecut=40 / intra_refresh=0 / rc=crf / mbtree=0 / crf=17.0 / qcomp=0.60 / qpmin=0 / qpmax=69 / qpstep=4 / ip_ratio=1.40 / pb_ratio=1.30 / aq=1:1.00
    Default                     : Yes
    Forced                      : No
    DURATION                    : 02:20:57.322000000

    Audio #1
    ID                          : 2
    Format                      : AC-3
    Format/Info                 : Audio Coding 3
    Format settings, Endianness : Big
    Codec ID                    : A_AC3
    Duration                    : 2 h 20 min
    Bit rate mode               : Constant
    Bit rate                    : 640 kb/s
    Channel(s)                  : 6 channels
    Channel positions           : Front: L C R, Side: L R, LFE
    Sampling rate               : 48.0 kHz
    Frame rate                  : 31.250 FPS (1536 spf)
    Bit depth                   : 16 bits
    Compression mode            : Lossy
    Stream size                 : 645 MiB (6%)
    Title                       : MVO_R5 от Lizard
    Language                    : Russian
    Service kind                : Complete Main
    Default                     : Yes
    Forced                      : No
    DURATION                    : 02:20:53.024000000

    Audio #2
    ID                          : 3
    Format                      : AC-3
    Format/Info                 : Audio Coding 3
    Format settings, Endianness : Big
    Codec ID                    : A_AC3
    Duration                    : 2 h 20 min
    Bit rate mode               : Constant
    Bit rate                    : 640 kb/s
    Channel(s)                  : 6 channels
    Channel positions           : Front: L C R, Side: L R, LFE
    Sampling rate               : 48.0 kHz
    Frame rate                  : 31.250 FPS (1536 spf)
    Bit depth                   : 16 bits
    Compression mode            : Lossy
    Stream size                 : 645 MiB (6%)
    Title                       : ENG
    Language                    : English
    Service kind                : Complete Main
    Default                     : No
    Forced                      : No
    DURATION                    : 02:20:52.992000000

    Text #1
    ID                          : 4
    Format                      : PGS
    Codec ID                    : S_HDMV/PGS
    Codec ID/Info               : Picture based subtitle format used on BDs/HD-DVDs
    Title                       : RUS
    Language                    : Russian
    Default                     : Yes
    Forced                      : No
    DURATION                    : 02:14:44.416000000

    Text #2
    ID                          : 5
    Format                      : PGS
    Codec ID                    : S_HDMV/PGS
    Codec ID/Info               : Picture based subtitle format used on BDs/HD-DVDs
    Title                       : ENG
    Language                    : English
    Default                     : No
    Forced                      : No
    DURATION                    : 02:15:02.093000000

    Menu
    00:00:00.000                : :Глава 1
    00:11:54.879                : :Глава 2
    00:23:42.628                : :Глава 3
    00:36:34.650                : :Глава 4
    00:48:18.393                : :Глава 5
    00:58:57.824                : :Глава 6
    01:12:10.783                : :Глава 7
    01:24:11.296                : :Глава 8
    01:36:12.725                : :Глава 9
    01:46:46.358                : :Глава 10
    01:57:09.313                : :Глава 11
    02:07:19.506                : :Глава 12Свернуть


    Похожие раздачи Искать похожие
    Инструкция по скачиванию
     1  Качаем uTorrent версии 2.0 и выше
     2  После установки, жмем выше под постером на ссылку Скачать [MediaGet] или Скачать .torrent
     3  Открываем скачанный файл через соответствующий клиент: MediaGet или uTorrent
     4  Ждем пока подключатся участники
     5  Качаем
    Комментарии о  Газонокосильщик / The Lawnmower Man | BDRip 720p 
    Ближайшее в кино
    Вверх