• Игры для PS4
  • Игры для PS3
  • Игры для XBOX360
  • Игры для PC
  • Игры для PS2
  • Игры для PSP
  • Для телефонов
  • Музыка
  • Книги / Журналы
  • Обои
  • Опрос
    Удобен ли сайт в использовании?
      0
    • Очень удобен, все понятно1,1,false,300,full
    • Удобен1,2,false,300,full
    • Средне1,3,false,300,full
    • Неудобен, трудно ориентироваться1,4,false,300,full
    • Совсем неудобен1,5,false,300,full
    Статистика
    Всего онлайн -
    Гостей -
    Пользователей -
    Короли трекера
    Благодарности () Закрыть
    Информация о фильме
    Название: Александр Великий
    Оригинальное название: Alexander the Great
    Год выхода: 1956
    Жанр: драма, военный, биография, история
    Режиссер: Роберт Россен
    В ролях: Ричард Бартон, Фредрик Марч, Клер Блум, Даниель Даррьё, Бэрри Джонс, Гарри Эндрюс, Стенли Бэйкер, Ниалл МакГиннис, Питер Кашинг, Майкл Хордерн, Мариса де Леса

    Описание: Греция в огне. Большая часть когда-то великих городов повержена в прах. Крохотная горная Македония пока сдерживает удар. Молодой сын царя Александр решает, что пришло время избавить страну от коварных соседей, на протяжении веков приходящих с войной на ее землю.

    Грозная сила обрушивается на врагов, покоряет все новые страны, объединяя народы и расширяя границы империи. Нанося удар за ударом, одерживая сокрушительные победы, гигантская армия Александра Македонского неудержимо катится вперед.

    Все дальше и дальше от родины. Сколько подвигов может совершить человек в одной жизни?



    Страна: США, Испания
    Продолжительность: 02:15:52
    Перевод 1: Профессиональный (многоголосый закадровый) Свела
    Перевод 2: Профессиональный (многоголосый закадровый) DVD-Магия
    Перевод 3: Профессиональный (двухголосый закадровый) НТВ+
    Перевод 4: Авторский (одноголосый закадровый) Сергей Кузнецов
    Субтитры: английские SDH
    Оригинальная аудиодорожка: английский

    Файл
    Качество: BDRemux 1080р
    Видео: MPEG-4 AVC / 1920x1080 / 16:9 / 23.976 fps / 29848 Kbps / High@L4.1
    Аудио 1: Russian / AC3 / 48.0 KHz / 2.0 / 192 kbps / Светла
    Аудио 2: Russian / AC3 / 48.0 KHz / 2.0 / 192 kbps / DVD-Магия
    Аудио 3: Russian / AC3 / 48.0 KHz / 2.0 / 192 kbps / НТВ+
    Аудио 4: Russian / AC3 / 48.0 KHz / 2.0 / 192 kbps / Сергей Кузнецов
    Аудио 5: English / FLAC / 48.0 KHz / 2.0 / 1273 kbps / 24 bit

    Скриншоты
    [screen]http://img10.lostpic.net/2018/10/11/b070303b1eb9f7c8d7ea0649944c4c07.png[/screen][screen]http://img10.lostpic.net/2018/10/11/ba678b9c0000a890b2c5e84551b03f22.png[/screen][screen]http://img10.lostpic.net/2018/10/11/06849106389949fe0cb253e4bbe4a793.png[/screen]Свернуть


    MediaInfo
    Общее
    Уникальный идентификатор                 : 314003365442333000712427330265307833485 (0xEC3AD931AF3D369CC2A4AE448492648D)
    Полное имя                               : E:porvaliparus.2018Alexander.the.Great.1956.BDRemux.1080p.mkv
    Формат                                   : Matroska
    Версия формата                           : Version 4 / Version 2
    Размер файла                             : 30,3 Гбайт
    Продолжительность                        : 2 ч. 15 м.
    Режим общего битрейта                    : Переменный
    Общий поток                              : 31,9 Мбит/сек
    Название фильма                          : Alexander.the.Great.1956.BDRemux.1080p-porvaliparus
    Дата кодирования                         : UTC 2018-10-09 23:52:21
    Программа кодирования                    : mkvmerge v27.0.0 ("Metropolis") 64-bit
    Библиотека кодирования                   : libebml v1.3.6 + libmatroska v1.4.9

    Видео
    Идентификатор                            : 1
    Формат                                   : AVC
    Формат/Информация                        : Advanced Video Codec
    Профиль формата                          : High@L4.1
    Настройки формата                        : CABAC / 4 Ref Frames
    Параметр CABAC формата                   : Да
    Параметр RefFrames формата               : 4 кадра
    Идентификатор кодека                     : V_MPEG4/ISO/AVC
    Продолжительность                        : 2 ч. 15 м.
    Вид битрейта                             : Переменный
    Битрейт                                  : 29,8 Мбит/сек
    Максимальный битрейт                     : 35,0 Мбит/сек
    Ширина                                   : 1920 пикселей
    Высота                                   : 1080 пикселей
    Соотношение сторон                       : 16:9
    Режим частоты кадров                     : Постоянный
    Частота кадров                           : 23,976 (24000/1001) кадра/сек
    Цветовое пространство                    : YUV
    Субдискретизация насыщенности            : 4:2:0
    Битовая глубина                          : 8 бит
    Тип развёртки                            : Прогрессивная
    Бит/(Пиксели*Кадры)                      : 0.600
    Размер потока                            : 28,3 Гбайт (94%)
    Заголовок                                : Alexander.the.Great.1956.BDRemux.1080p
    Default                                  : Да
    Forced                                   : Нет

    Аудио #1
    Идентификатор                            : 2
    Формат                                   : AC-3
    Формат/Информация                        : Audio Coding 3
    Идентификатор кодека                     : A_AC3
    Продолжительность                        : 2 ч. 15 м.
    Вид битрейта                             : Постоянный
    Битрейт                                  : 192 Кбит/сек
    Каналы                                   : 2 канала
    Расположение каналов                     : Front: L R
    Частота                                  : 48,0 КГц
    Частота кадров                           : 31,250 кадров/сек (1536 SPF)
    Битовая глубина                          : 16 бит
    Метод сжатия                             : С потерями
    Размер потока                            : 187 Мбайт (1%)
    Заголовок                                : MVO [Светла]
    Язык                                     : Russian
    ServiceKind                              : Complete Main
    Default                                  : Да
    Forced                                   : Нет

    Аудио #2
    Идентификатор                            : 3
    Формат                                   : AC-3
    Формат/Информация                        : Audio Coding 3
    Идентификатор кодека                     : A_AC3
    Продолжительность                        : 2 ч. 15 м.
    Вид битрейта                             : Постоянный
    Битрейт                                  : 192 Кбит/сек
    Каналы                                   : 2 канала
    Расположение каналов                     : Front: L R
    Частота                                  : 48,0 КГц
    Частота кадров                           : 31,250 кадров/сек (1536 SPF)
    Битовая глубина                          : 16 бит
    Метод сжатия                             : С потерями
    Размер потока                            : 187 Мбайт (1%)
    Заголовок                                : MVO [DVD-Магия]
    Язык                                     : Russian
    ServiceKind                              : Complete Main
    Default                                  : Нет
    Forced                                   : Нет

    Аудио #3
    Идентификатор                            : 4
    Формат                                   : AC-3
    Формат/Информация                        : Audio Coding 3
    Идентификатор кодека                     : A_AC3
    Продолжительность                        : 2 ч. 15 м.
    Вид битрейта                             : Постоянный
    Битрейт                                  : 192 Кбит/сек
    Каналы                                   : 2 канала
    Расположение каналов                     : Front: L R
    Частота                                  : 48,0 КГц
    Частота кадров                           : 31,250 кадров/сек (1536 SPF)
    Битовая глубина                          : 16 бит
    Метод сжатия                             : С потерями
    Размер потока                            : 187 Мбайт (1%)
    Заголовок                                : DVO [НТВ+]
    Язык                                     : Russian
    ServiceKind                              : Complete Main
    Default                                  : Нет
    Forced                                   : Нет

    Аудио #4
    Идентификатор                            : 5
    Формат                                   : AC-3
    Формат/Информация                        : Audio Coding 3
    Идентификатор кодека                     : A_AC3
    Продолжительность                        : 2 ч. 15 м.
    Вид битрейта                             : Постоянный
    Битрейт                                  : 192 Кбит/сек
    Каналы                                   : 2 канала
    Расположение каналов                     : Front: L R
    Частота                                  : 48,0 КГц
    Частота кадров                           : 31,250 кадров/сек (1536 SPF)
    Битовая глубина                          : 16 бит
    Метод сжатия                             : С потерями
    Размер потока                            : 187 Мбайт (1%)
    Заголовок                                : AVO [С. Кузнецов]
    Язык                                     : Russian
    ServiceKind                              : Complete Main
    Default                                  : Нет
    Forced                                   : Нет

    Аудио #5
    Идентификатор                            : 6
    Формат                                   : FLAC
    Формат/Информация                        : Free Lossless Audio Codec
    Идентификатор кодека                     : A_FLAC
    Продолжительность                        : 2 ч. 15 м.
    Вид битрейта                             : Переменный
    Битрейт                                  : 1273 Кбит/сек
    Каналы                                   : 2 канала
    Расположение каналов                     : Front: L R
    Частота                                  : 48,0 КГц
    Частота кадров                           : 11,719 кадров/сек (4096 SPF)
    Битовая глубина                          : 24 бит
    Размер потока                            : 1,21 Гбайт (4%)
    Библиотека кодирования                   : libFLAC 1.2.1 (UTC 2007-09-17)
    Язык                                     : English
    Default                                  : Нет
    Forced                                   : Нет

    Текст
    Идентификатор                            : 7
    Формат                                   : UTF-8
    Идентификатор кодека                     : S_TEXT/UTF8
    Идентификатор кодека/Информация          : UTF-8 Plain Text
    Продолжительность                        : 2 ч. 15 м.
    Битрейт                                  : 55 бит/сек
    ElementCount                             : 1770
    Размер потока                            : 55,1 Кбайт (0%)
    Заголовок                                : SDH
    Язык                                     : English
    Default                                  : Нет
    Forced                                   : Нет

    Меню
    00:00:00.000                             : en:Chapter 1
    00:05:15.190                             : en:Chapter 2
    00:10:50.316                             : en:Chapter 3
    00:16:46.214                             : en:Chapter 4
    00:22:58.586                             : en:Chapter 5
    00:29:56.670                             : en:Chapter 6
    00:34:02.040                             : en:Chapter 7
    00:40:07.822                             : en:Chapter 8
    00:46:04.762                             : en:Chapter 9
    00:49:42.646                             : en:Chapter 10
    00:56:55.287                             : en:Chapter 11
    01:02:00.050                             : en:Chapter 12
    01:08:08.668                             : en:Chapter 13
    01:13:22.398                             : en:Chapter 14
    01:20:35.372                             : en:Chapter 15
    01:24:31.900                             : en:Chapter 16
    01:30:02.689                             : en:Chapter 17
    01:36:35.498                             : en:Chapter 18
    01:41:25.705                             : en:Chapter 19
    01:48:10.901                             : en:Chapter 20
    01:52:13.560                             : en:Chapter 21
    01:58:53.543                             : en:Chapter 22
    02:04:33.716                             : en:Chapter 23
    02:10:19.729                             : en:Chapter 24Свернуть
    Похожие раздачи Искать похожие
    Инструкция по скачиванию
     1  Качаем uTorrent версии 2.0 и выше
     2  После установки, жмем выше под постером на ссылку Скачать [MediaGet] или Скачать .torrent
     3  Открываем скачанный файл через соответствующий клиент: MediaGet или uTorrent
     4  Ждем пока подключатся участники
     5  Качаем
    Комментарии о  Александр Великий / Alexander the Great | BDRemux 1080p 
    Ближайшее в кино
    Вверх