• Игры для PS4
  • Игры для PS3
  • Игры для XBOX360
  • Игры для PC
  • Игры для PS2
  • Игры для PSP
  • Для телефонов
  • Музыка
  • Книги / Журналы
  • Обои
  • Опрос
    Откуда Вы о нас узнали?
      0
    • От знакомых2,1,false,300,full
    • Из социальных сетей2,2,false,300,full
    • Из поисковых систем2,3,false,300,full
    • Другое2,4,false,300,full
    Статистика
    Всего онлайн -
    Гостей -
    Пользователей -
    Короли трекера
    Благодарности () Закрыть
    Информация о фильме
    Название: Шпион, который меня кинул
    Оригинальное название: The Spy Who Dumped Me
    Год выхода: 2018
    Жанр: Боевик, комедия
    Режиссер: Сюзанна Фогель
    В ролях: Мила Кунис, Кейт МакКиннон, Сэм Хьюэн, Джастин Теру, Джиллиан Андерсон, Хасан Минхадж, Иванна Сахно, Фред Меламед, Бланка Дьёрфи-Тот, Вильма Сечи



    О фильме: Одри и Морган, лучшие подруги из Лос-Анджелеса, неожиданно оказываются в эпицентре международного заговора, когда бывший Одри заявляется к ней с толпой идущих по следу кровожадных убийц. Удивляясь сами себе, девушки берутся за нелегкое дело спасения мира. Их ждет полная опасностей - и киллеров - шпионская гонка по всей Европе, где на пути им встречается очень подозрительный, но такой обаятельный британский агент...

    Страна: США
    Студия: Imagine Entertainment, Lionsgate
    Продолжительность: 01:56:56
    Перевод: Дублированный | iTunes

    Качество: BDRip 720p
    Видео: MPEG-4 AVC, 1280x534, 4684 Kbit/s, 23.976 fps
    Звук:
    Аудио #01: 48 kHz, AC3, 5.1, 384 Kbps | iTunes | RUS |[img]http://img11.lostpic.net/2018/08/13/7c2ebc4025c59bfa2d99e99b51a513dc.png[/img]
    Аудио #02: 48 kHz, AC3, 5.1, 640 Kbps | Оригинал |  ENG |[img]http://img11.lostpic.net/2018/08/13/9611f09865bbb093dacbc8ec792c4ceb.png[/img]
    Субтитры: Английские

    [img]http://img11.lostpic.net/2018/10/22/382995da831eae51ed4df61ea5863316.png[/img][img]http://img11.lostpic.net/2018/10/22/74e2e9c0b6f6e1732e5e2958f7e64f55.png[/img][img]http://img11.lostpic.net/2018/10/22/665ffcdb1878fbf26ae02a7bd22695dc.png[/img][img]http://img11.lostpic.net/2018/10/22/1c08239ab2bbb0bcaa27afec14b14f80.png[/img][img]http://img11.lostpic.net/2018/10/22/057af9f71c8d34b5711c1490cc478bb1.png[/img]

    MI
    General
    Unique ID                   : 110437953899038040943600718789266098004 (0x53159384896D515A1E5784619C77C754)
    Complete name               : D:Video111The.Spy.Who.Dumped.Me.2018.BluRay.720p.Rus.Eng.TeamHD-CHD.mkv
    Format                      : Matroska
    Format version              : Version 4
    File size                   : 4.64 GiB
    Duration                    : 1 h 56 min
    Overall bit rate            : 5 685 kb/s
    Movie name                  : The.Spy.Who.Dumped.Me.2018 TeamHD-селезень
    Encoded date                : UTC 2018-10-22 18:37:42
    Writing application         : mkvmerge v28.0.0 ("Voice In My Head") 64-bit
    Writing library             : libebml v1.3.6 + libmatroska v1.4.9

    Video
    ID                          : 1
    Format                      : AVC
    Format/Info                 : Advanced Video Codec
    Format profile              : High@L4.1
    Format settings             : CABAC / 9 Ref Frames
    Format settings, CABAC      : Yes
    Format settings, ReFrames   : 9 frames
    Codec ID                    : V_MPEG4/ISO/AVC
    Duration                    : 1 h 56 min
    Bit rate                    : 4 684 kb/s
    Width                       : 1 280 pixels
    Height                      : 534 pixels
    Display aspect ratio        : 2.40:1
    Frame rate mode             : Constant
    Frame rate                  : 23.976 (24000/1001) FPS
    Color space                 : YUV
    Chroma subsampling          : 4:2:0
    Bit depth                   : 8 bits
    Scan type                   : Progressive
    Bits/(Pixel*Frame)          : 0.286
    Stream size                 : 3.80 GiB (82%)
    Title                       : CHD
    Writing library             : x264 core 155 r2901 7d0ff22
    Encoding settings           : cabac=1 / ref=9 / deblock=1:-3:-3 / analyse=0x3:0x113 / me=umh / subme=10 / psy=1 / psy_rd=1.05:0.10 / mixed_ref=1 / me_range=32 / chroma_me=1 / trellis=2 / 8x8dct=1 / cqm=0 / deadzone=21,11 / fast_pskip=0 / chroma_qp_offset=-2 / threads=17 / lookahead_threads=1 / sliced_threads=0 / nr=0 / decimate=1 / interlaced=0 / bluray_compat=0 / constrained_intra=0 / bframes=6 / b_pyramid=2 / b_adapt=2 / b_bias=0 / direct=3 / weightb=1 / open_gop=0 / weightp=2 / keyint=250 / keyint_min=23 / scenecut=40 / intra_refresh=0 / rc=2pass / mbtree=0 / bitrate=4684 / ratetol=1.0 / qcomp=0.70 / qpmin=0 / qpmax=69 / qpstep=4 / cplxblur=20.0 / qblur=0.5 / ip_ratio=1.40 / pb_ratio=1.30 / aq=3:1.00
    Language                    : English
    Default                     : Yes
    Forced                      : No

    Audio #1
    ID                          : 2
    Format                      : AC-3
    Format/Info                 : Audio Coding 3
    Commercial name             : Dolby Digital
    Codec ID                    : A_AC3
    Duration                    : 1 h 56 min
    Bit rate mode               : Constant
    Bit rate                    : 384 kb/s
    Channel(s)                  : 6 channels
    Channel layout              : L R C LFE Ls Rs
    Sampling rate               : 48.0 kHz
    Frame rate                  : 31.250 FPS (1536 SPF)
    Bit depth                   : 16 bits
    Compression mode            : Lossy
    Stream size                 : 321 MiB (7%)
    Title                       : iTunes
    Language                    : Russian
    Service kind                : Complete Main
    Default                     : Yes
    Forced                      : Yes

    Audio #2
    ID                          : 3
    Format                      : AC-3
    Format/Info                 : Audio Coding 3
    Commercial name             : Dolby Digital
    Codec ID                    : A_AC3
    Duration                    : 1 h 56 min
    Bit rate mode               : Constant
    Bit rate                    : 640 kb/s
    Channel(s)                  : 6 channels
    Channel layout              : L R C LFE Ls Rs
    Sampling rate               : 48.0 kHz
    Frame rate                  : 31.250 FPS (1536 SPF)
    Bit depth                   : 16 bits
    Compression mode            : Lossy
    Stream size                 : 535 MiB (11%)
    Title                       : Original
    Language                    : English
    Service kind                : Complete Main
    Default                     : No
    Forced                      : No

    Text #1
    ID                          : 4
    Format                      : UTF-8
    Codec ID                    : S_TEXT/UTF8
    Codec ID/Info               : UTF-8 Plain Text
    Duration                    : 1 h 48 min
    Bit rate                    : 79 b/s
    Count of elements           : 1958
    Stream size                 : 63.1 KiB (0%)
    Title                       : Full
    Language                    : English
    Default                     : No
    Forced                      : No

    Text #2
    ID                          : 5
    Format                      : UTF-8
    Codec ID                    : S_TEXT/UTF8
    Codec ID/Info               : UTF-8 Plain Text
    Duration                    : 1 h 48 min
    Bit rate                    : 80 b/s
    Count of elements           : 2086
    Stream size                 : 64.1 KiB (0%)
    Title                       : SDH
    Language                    : English
    Default                     : No
    Forced                      : No

    Text #3
    ID                          : 6
    Format                      : UTF-8
    Codec ID                    : S_TEXT/UTF8
    Codec ID/Info               : UTF-8 Plain Text
    Duration                    : 1 h 49 min
    Bit rate                    : 131 b/s
    Count of elements           : 2394
    Stream size                 : 106 KiB (0%)
    Title                       : SDH Colored
    Language                    : English
    Default                     : No
    Forced                      : No

    Menu
    00:00:00.000                : en:00:00:00.000
    00:07:32.410                : en:00:07:32.410
    00:14:08.097                : en:00:14:08.097
    00:20:44.535                : en:00:20:44.535
    00:28:28.040                : en:00:28:28.040
    00:35:15.864                : en:00:35:15.864
    00:41:22.438                : en:00:41:22.438
    00:47:24.675                : en:00:47:24.675
    00:52:19.136                : en:00:52:19.136
    01:02:37.295                : en:01:02:37.295
    01:09:52.146                : en:01:09:52.146
    01:14:41.644                : en:01:14:41.644
    01:23:34.551                : en:01:23:34.551
    01:26:44.449                : en:01:26:44.449
    01:41:58.612                : en:01:41:58.612
    01:46:01.313                : en:01:46:01.313Свернуть


    [img]http://lostpix.com/img/2017-03/22/pa3kns75lpl0e564ik1il8ow9.gif[/img]
    Инструкция по скачиванию
     1  Качаем uTorrent версии 2.0 и выше
     2  После установки, жмем выше под постером на ссылку Скачать [MediaGet] или Скачать .torrent
     3  Открываем скачанный файл через соответствующий клиент: MediaGet или uTorrent
     4  Ждем пока подключатся участники
     5  Качаем
    Комментарии о  Шпион, который меня кинул / The Spy Who Dumped Me | BDRip 720p 
    Ближайшее в кино
    Вверх