• Игры для PS4
  • Игры для PS3
  • Игры для XBOX360
  • Игры для PC
  • Игры для PS2
  • Игры для PSP
  • Для телефонов
  • Музыка
  • Книги / Журналы
  • Обои
  • Опрос
    Удобен ли сайт в использовании?
      0
    • Очень удобен, все понятно1,1,false,300,full
    • Удобен1,2,false,300,full
    • Средне1,3,false,300,full
    • Неудобен, трудно ориентироваться1,4,false,300,full
    • Совсем неудобен1,5,false,300,full
    Статистика
    Всего онлайн -
    Гостей -
    Пользователей -
    Короли трекера
    
    Благодарности () Закрыть
    Информация о фильме
    Название: Мотылек
    Оригинальное название: Papillon
    Год выхода: 2017
    Жанр: Триллер, драма, криминал, детектив
    Режиссер: Михаэль Ноер
    В ролях: Чарли Ханнэм, Рами Малек, Томми Флэнаган, Ив Хьюсон, Роланд Мёллер, Нина Сеникар, Майкл Сока, Кристофер Фэйрбэнк, Йорик ван Вагенинген, Йоэль Басман
    О фильме:
    Авантюрист по прозвищу Мотылек получает пожизненный срок в тюрьме для особо опасных преступников - за убийство, которого он не совершал. Когда вокруг враги, а надежда угасает с каждым днём заключения, лишь сила духа может помочь Мотыльку обрести свободу.


    Страна: Чехия, Испания, США, Czech Anglo Productions, FishCorb Films, Red Granite Pictures
    Продолжительность: 02:13:44
    Перевод: Любительский (двухголосый закадровый) | HiWay Grope

    Файл
    Кодек: MPEG-4 AVC/x.264
    Качество: WEBRip 720p
    Видео: 1280x536, 25.000 fps, ~4069 kbps, 0.237 bit/pixel
    Звук:
    Аудио rus: AC3, 48 kHz, 6 ch, 384 Kbps
    Субтитры: отсутствуют

    Реклама: присутствует

    Семпл

    MediaInfo

    General
    Unique ID                                : 253422526153931106371869811736383054830 (0xBEA7673629B868BF97A5F0A6DFBFE3EE)
    Complete name                            : D:Papillon.2017.720p.WEBRip.HiWayGropePapillon.2017.720p.WEBRip.HiWayGrope.mkv
    Format                                   : Matroska
    Format version                           : Version 2
    File size                                : 4.24 GiB
    Duration                                 : 2 h 13 min
    Overall bit rate                         : 4 543 kb/s
    Encoded date                             : UTC 2018-11-03 00:04:56
    Writing application                      : mkvmerge v3.3.0 ("Language") built on Mar 24 2010 14:59:24
    Writing library                          : libebml v0.8.0 + libmatroska v0.9.0

    Video
    ID                                       : 1
    Format                                   : AVC
    Format/Info                              : Advanced Video Codec
    Format profile                           : Main@L3.1
    Format settings                          : CABAC / 3 Ref Frames
    Format settings, CABAC                   : Yes
    Format settings, RefFrames               : 3 frames
    Codec ID                                 : V_MPEG4/ISO/AVC
    Duration                                 : 2 h 13 min
    Bit rate                                 : 4 069 kb/s
    Width                                    : 1 280 pixels
    Height                                   : 536 pixels
    Display aspect ratio                     : 2.40:1
    Frame rate mode                          : Constant
    Frame rate                               : 25.000 FPS
    Standard                                 : PAL
    Color space                              : YUV
    Chroma subsampling                       : 4:2:0
    Bit depth                                : 8 bits
    Scan type                                : Progressive
    Bits/(Pixel*Frame)                       : 0.237
    Stream size                              : 3.80 GiB (90%)
    Language                                 : English
    Default                                  : Yes
    Forced                                   : No
    Color range                              : Limited
    Color primaries                          : BT.601 NTSC
    Transfer characteristics                 : BT.601
    Matrix coefficients                      : BT.601

    Audio
    ID                                       : 2
    Format                                   : AC-3
    Format/Info                              : Audio Coding 3
    Codec ID                                 : A_AC3
    Duration                                 : 2 h 13 min
    Bit rate mode                            : Constant
    Bit rate                                 : 384 kb/s
    Channel(s)                               : 6 channels
    Channel positions                        : Front: L C R, Side: L R, LFE
    Sampling rate                            : 48.0 kHz
    Frame rate                               : 31.250 FPS (1536 SPF)
    Bit depth                                : 16 bits
    Compression mode                         : Lossy
    Stream size                              : 367 MiB (8%)
    Service kind                             : Complete Main
    Default                                  : Yes
    Forced                                   : No

    Свернуть


    Похожие раздачи Искать похожие
    Инструкция по скачиванию
     1  Качаем uTorrent версии 2.0 и выше
     2  После установки, жмем выше под постером на ссылку Скачать [MediaGet] или Скачать .torrent
     3  Открываем скачанный файл через соответствующий клиент: MediaGet или uTorrent
     4  Ждем пока подключатся участники
     5  Качаем
    Комментарии о  Мотылек / Papillon | WEBRip 720p 
    Ближайшее в кино
    Вверх