• Игры для PS3
  • Игры для XBOX360
  • Игры для PC
  • Игры для PS2
  • Игры для PSP
  • Для телефонов
  • Музыка
  • Книги/Журналы
  • Обои
  •  
    Опрос
    Удобен ли сайт в использовании?
      0
    • Очень удобен, все понятно1,1,false,300,full
    • Удобен1,2,false,300,full
    • Средне1,3,false,300,full
    • Неудобен, трудно ориентироваться1,4,false,300,full
    • Совсем неудобен1,5,false,300,full
    Статистика
    Загрузка...
    Манхэттен / Manhattan [Сезон 01 | 01-04 серии из 13] | WEB-DL 1080p
    Статус  Проверено
    В закладки
    Модератор: Max

    Манхэттен / Manhattan [Сезон 01 | 01-04 серии из 13] | WEB-DL 1080p [Сериалы 2014] скачать торрентом/torrent бесплатно

    Год выхода
    Категории
    Язык
    Закачал
    Max | 16 ноября 2014 в 21ч 40м 47с
    Раздел
    Отзывов
    0
    Раздают: 0 Качают: 0 Скачали: 0 Размер: 8.22 GB
    Инфо о раздаче | Благодарности |
    0/5
    0
    0 5 0
    Поддержи нас — расскажи друзьям!
    Orbitum
    Новый интернет-браузер Быстрее загружает сайты Экономит интернет—трафик Меняет оформление страницы ВК Блокирует всю рекламу на сайтах Загружает торренты как

    µTorrent

    клиент
    Объеденяет все твои чаты из соц. сетей в один Проигрывает твою музыку не заходя во ВКонтакте
    Скачать и многое другое... Подробности на сайте производителя
    Информация о фильме
    Название: Манхэттен
    Оригинальное название: Manhattan
    Год выхода: 2014
    Жанр: Драма
    Режиссер: Томас Шламми, Пэрис Барклай, Билл Д’Элиа
    В ролях: Алексия Фаст, Джон Бенжамин Хикки, Кристофер Денэм, Дэниэл Стерн, Майкл Чернус, Оливия Уильямс, Эшли Цукерман, Альма Сиснерос

    О фильме: Действие драматического сериала начинается во время Второй мировой войны, в начале 1940-х годов прошлого века. Американское правительство создает особую программу по разработке ядерного оружия — «Проект „Манхэттен“». К работе привлекаются самые опытные ученые разных специальностей, которых вербуют и переправляют в пустыню Нью-Мексико, в Лос-Аламос. Возглавляет сложную и опасную работу лаборатории профессор Фрэнк Уинтер (Джон Бенджамин Хикки). Участникам проекта каждый день приходится идти на сделку со своей совестью, выбирая между моральными ценностями и долгом, скрывая правду о своей работе от самых близких людей... Сериал «Манхэттен» основан на реальных событиях.

      



    Выпущено: США
    Студия: Lions Gate Television, Shoe Money Productions, Skydance Productions, Tribune Studios
    Продолжительность: 4 x ~ 00:55:00
    Перевод: Профессиональный многоголосый

    Файл
    Кодек: MPEG-4 AVC
    Качество: WEB-DL 1080p
    Видео: 5000 Кбит/с, 1912x1072
    Звук:
    Аудио #1: Русский (AC3, 6 ch, 384 Кбит/с) / любительский (многоголосый, закадровый) (BaibaKo)
    Аудио #2: Английский (AC3, 6 ch, 384 Кбит/с)
    Субтитры: Русские, английские

    MI

    Общее
    Уникальный идентификатор                 : 197331893084023159480772135034853484991 (0x9474BD7CEA72D7AD8963302D1EF369BF)
    Полное имя                               : D:В планахManhjetten.(1.sezon).2014.x264.WEB-DL.1080p_MediaClubManhjetten.(1.sezon.01.seriya.iz.13).2014.x264.WEB-DL.1080p_MediaClub.mkv
    Формат                                   : Matroska
    Версия формата                           : Version 4 / Version 2
    Размер файла                             : 2,27 Гбайт
    Продолжительность                        : 56 м.
    Общий поток                              : 5714 Кбит/сек
    Дата кодирования                         : UTC 2014-08-04 17:28:12
    Программа кодирования                    : mkvmerge v6.9.1 ('Blue Panther&#039:wink: 64bit built on Apr 18 2014 18:23:38
    Библиотека кодирования                   : libebml v1.3.0 + libmatroska v1.4.1
    Обложка                                  : Yes / Yes / Yes / Yes

    Видео
    Идентификатор                            : 1
    Формат                                   : AVC
    Формат/Информация                        : Advanced Video Codec
    Профиль формата                          : High@L4.0
    Параметр CABAC формата                   : Да
    Параметр ReFrames формата                : 4 кадра
    Идентификатор кодека                     : V_MPEG4/ISO/AVC
    Продолжительность                        : 56 м.
    Битрейт                                  : 4833 Кбит/сек
    Ширина                                   : 1912 пикселей
    Высота                                   : 1072 пикселя
    Соотношение сторон                       : 16:9
    Режим частоты кадров                     : Постоянный
    Частота кадров                           : 23,976 кадра/сек
    Цветовое пространство                    : YUV
    Субдискретизация насыщенности            : 4:2:0
    Битовая глубина                          : 8 бит
    Тип развёртки                            : Прогрессивная
    Бит/(Пиксели*Кадры)                      : 0.098
    Размер потока                            : 1,92 Гбайт (85%)
    Язык                                     : English
    Default                                  : Да
    Forced                                   : Нет
    Основные цвета                           : BT.709
    Характеристики трансфера                 : BT.709
    Коэффициенты матрицы                     : BT.709

    Аудио #1
    Идентификатор                            : 2
    Формат                                   : AC-3
    Формат/Информация                        : Audio Coding 3
    Расширение режима                        : CM (complete main)
    Параметр Endianness формата              : Big
    Идентификатор кодека                     : A_AC3
    Продолжительность                        : 56 м.
    Вид битрейта                             : Постоянный
    Битрейт                                  : 384 Кбит/сек
    Каналы                                   : 6 каналов
    Расположение каналов                     : Front: L C R, Side: L R, LFE
    Частота                                  : 48,0 КГц
    Битовая глубина                          : 16 бит
    Метод сжатия                             : С потерями
    Размер потока                            : 156 Мбайт (7%)
    Язык                                     : Russian
    Default                                  : Да
    Forced                                   : Нет

    Аудио #2
    Идентификатор                            : 3
    Формат                                   : AC-3
    Формат/Информация                        : Audio Coding 3
    Расширение режима                        : CM (complete main)
    Параметр Endianness формата              : Big
    Идентификатор кодека                     : A_AC3
    Продолжительность                        : 56 м.
    Вид битрейта                             : Постоянный
    Битрейт                                  : 384 Кбит/сек
    Каналы                                   : 6 каналов
    Расположение каналов                     : Front: L C R, Side: L R, LFE
    Частота                                  : 48,0 КГц
    Битовая глубина                          : 16 бит
    Метод сжатия                             : С потерями
    Размер потока                            : 156 Мбайт (7%)
    Язык                                     : English
    Default                                  : Нет
    Forced                                   : Нет

    Текст #1
    Идентификатор                            : 4
    Формат                                   : UTF-8
    Идентификатор кодека                     : S_TEXT/UTF8
    Идентификатор кодека/Информация          : UTF-8 Plain Text
    Язык                                     : Russian
    Default                                  : Нет
    Forced                                   : Нет

    Текст #2
    Идентификатор                            : 5
    Формат                                   : UTF-8
    Идентификатор кодека                     : S_TEXT/UTF8
    Идентификатор кодека/Информация          : UTF-8 Plain Text
    Язык                                     : English
    Default                                  : Нет
    Forced                                   : Нет


    Скриншоты

    [img]http://s020.radikal.ru/i721/1408/91/a5dedf13488e.png[/img]
    [img]http://s013.radikal.ru/i325/1408/55/63f4d84bb7ab.png[/img]

    [img]http://s017.radikal.ru/i435/1408/cd/ae2160a4b52b.png[/img]



      

    Раздача ведется путем добавления новых серий
    Еще похожие »

    Как скачать?
    1. Качаем UTorrent версии 2.0 и выше отсюда
    2. После установки, жмем на ссылку Скачать торрент.
    3. Открываем его через utorrent.
    4. Ждем пока подключатся участники.
    5. Качаем.


    Комментарии о Манхэттен / Manhattan [Сезон 01 | 01-04 серии из 13] | WEB-DL 1080p
    Добавлять комментарии могут только зарегистрированные пользователи

    Зарегистрироваться или Войти


    Ближайшее в кино
    • Привидение дата выхода 26 апреля 2018Привидение
      Дата выхода: 26 апреля 2018
    • 1045590|Правда или действие|26 апреля 2018|200|300Правда или действие
      Дата выхода: 26 апреля 2018
    • 841470|Смешарики. Дежавю|26 апреля 2018|200|300Смешарики. Дежавю
      Дата выхода: 26 апреля 2018
    • 1046545|Танки|26 апреля 2018|200|300Танки
      Дата выхода: 26 апреля 2018
    • 1027311|Дыши во мгле|26 апреля 2018|200|300Дыши во мгле
      Дата выхода: 26 апреля 2018
    • 959260|Миссис Хайд|26 апреля 2018|200|300Миссис Хайд
      Дата выхода: 26 апреля 2018
    • 845128|Я заберу твои деньги|26 апреля 2018|200|300Я заберу твои деньги
      Дата выхода: 26 апреля 2018
    • 1112036|Лицо|26 апреля 2018|200|300Лицо
      Дата выхода: 26 апреля 2018
    • 1076322|Великолепная|26 апреля 2018|200|300Великолепная
      Дата выхода: 26 апреля 2018
    • 1110934|Золушка|28 апреля 2018|200|300Золушка
      Дата выхода: 28 апреля 2018
    • 1115701|МУЛЬТ в кино. Выпуск №74. Планета Май!|28 апреля 2018|200|300МУЛЬТ в кино. Выпуск №74. Планета Май!
      Дата выхода: 28 апреля 2018
    • 928533|Папа-мама гусь|1 мая 2018|200|300Папа-мама гусь
      Дата выхода: 1 мая 2018
    • 843649|Мстители: Война бесконечности|3 мая 2018|200|300Мстители: Война бесконечности
      Дата выхода: 3 мая 2018
    • 939785|Остров собак|3 мая 2018|200|300Остров собак
      Дата выхода: 3 мая 2018
    • 905031|Собибор|3 мая 2018|200|300Собибор
      Дата выхода: 3 мая 2018
    Вверх