• Игры для PS4
  • Игры для PS3
  • Игры для XBOX360
  • Игры для PC
  • Игры для PS2
  • Игры для PSP
  • Для телефонов
  • Музыка
  • Книги / Журналы
  • Обои
  • Опрос
    Откуда Вы о нас узнали?
      0
    • От знакомых2,1,false,300,full
    • Из социальных сетей2,2,false,300,full
    • Из поисковых систем2,3,false,300,full
    • Другое2,4,false,300,full
    Статистика
    Всего онлайн -
    Гостей -
    Пользователей -
    Короли трекера
    Благодарности () Закрыть
    «Мы верим в любовь»



    Страна: Россия / РОССИЯ 1, ЛЕОПОЛИС, КВАРТАЛ95

    Жанр:  комедия, мелодрама, фэнтези
    Год выпуска: 2014
    Продолжительность: 00:43:50 / серия

    Перевод: Не требуется
    Cубтитры: нет
    Оригинальная аудиодорожка: русский

    Режиссер: Марюс Вайсберг, Дэвид Додсон

    В ролях: Вера Брежнева, Алексей Чадов, Светлана Ходченкова, Владимир Зеленский, Настя Задорожная, Вилле Хаапасало, Филипп Киркоров, Екатерина Климова, Шэрон Стоун, Игорь Жижикин...

    Описание: В жизни каждого отца, рано или поздно наступает момент, когда жена улетает на заслуженный отдых, а он остается один на один с собственным ребенком. Казалось бы — ничего сложного! Также подумали Игорь, Артем и Сауна, даже не подозревая, какой «водопад» приключений накроет их с головой. Измученные «прелестями» отцовства, парни встречают своего старого приятеля Святого Валентина. Снимая стресс за бутылочкой виски, ребята в шутку мечтают о том, чтобы их дети поскорее стали взрослыми. А на утро, шокированные папаши понимают — их мечта сбылась и теперь они на собственной шкуре поймут, что значит поговорка: «Большие дети — большие проблемы…»




    Качество: DVDRip / 2 x DVD9 R5 - лицензионные диски от "CD Land"
    Формат: AVI

    Видео: 720x400 (16:9), 25.000 fps, XviD ~ 1800 kbps avg, 0.250 bit/pixel
    Аудио: 48 kHz, Dolby AC3, 6 ch, 448 kbps, русский

    Раздача от:  

    MediaInfo

    Общее
    Полное имя                               : Lyubov.v.bolshom.gorode.3.2014.O.DVDRip_[New-Team]_by_avproh1.avi
    Формат                                   : AVI
    Формат/Информация                        : Audio Video Interleave
    Размер файла                             : 710 Мбайт
    Продолжительность                        : 43 м.
    Общий поток                              : 2256 Кбит/сек
    Программа кодирования                    : VirtualDubMod 1.5.10.3 | www.virtualdub-fr.org || (build 2550/release)
    Библиотека кодирования                   : VirtualDubMod build 2550/release

    Видео
    Идентификатор                            : 0
    Формат                                   : MPEG-4 Visual
    Профиль формата                          : Advanced Simple@L5
    Параметр BVOP формата                    : 1
    Параметр QPel формата                    : Нет
    Параметр GMC формата                     : Без точки перехода
    Параметр матрицы формата                 : Выборочная
    Идентификатор кодека                     : XVID
    Идентификатор кодека/Подсказка           : XviD
    Продолжительность                        : 43 м.
    Битрейт                                  : 1799 Кбит/сек
    Ширина                                   : 720 пикселей
    Высота                                   : 400 пикселей
    Соотношение сторон                       : 16:9
    Частота кадров                           : 25,000 кадров/сек
    Цветовое пространство                    : YUV
    Субдискретизация насыщенности            : 4:2:0
    Битовая глубина                          : 8 бит
    Тип развёртки                            : Прогрессивная
    Метод сжатия                             : С потерями
    Бит/(Пиксели*Кадры)                      : 0.250
    Размер потока                            : 566 Мбайт (80%)
    Библиотека кодирования                   : XviD 1.2.1 (UTC 2008-12-04)

    Аудио
    Идентификатор                            : 1
    Формат                                   : AC-3
    Формат/Информация                        : Audio Coding 3
    Расширение режима                        : CM (complete main)
    Параметр Endianness формата              : Big
    Идентификатор кодека                     : 2000
    Продолжительность                        : 43 м.
    Вид битрейта                             : Постоянный
    Битрейт                                  : 448 Кбит/сек
    Каналы                                   : 6 каналов
    Расположение каналов                     : Front: L C R, Side: L R, LFE
    Частота                                  : 48,0 КГц
    Битовая глубина                          : 16 бит
    Метод сжатия                             : С потерями
    Размер потока                            : 141 Мбайт (20%)
    Выравнивание                             : Разделение по промежуткам
    Продолжительность промежутка             : 40  мс. (1,00 видеокадр)
    Время предзагрузки промежутка            : 500  мс.
    Свернуть

    Скриншоты:

    [screen]http://i068.radikal.ru/1409/0e/865f71378dfe.png[/screen]
    [screen]http://s020.radikal.ru/i712/1409/e8/9c69598c4733.png[/screen]
    [screen]http://s009.radikal.ru/i310/1409/bd/aeb78fb9647d.png[/screen]
    [screen]http://s019.radikal.ru/i617/1409/d4/d3dc48d00d92.png[/screen]
    [screen]http://s017.radikal.ru/i439/1409/28/85bb832373fd.png[/screen]

    Свернуть

    Сравнения с релизами MediaClub:

    HDTVRip -> DVDRip: http://alt.rutor.org/torrent/340092
    Видео: http://screenshotcomparison.com/comparison/90635/ - взято подряд по 4 кадра, у конкурента при кодировании не верно подобран деинтерлейс. Таких кадров во всех сериях очень много.
    Аудио: http://screenshotcomparison.com/comparison/90636 - + у меня 6 каналов, а у конкурента 2.

    WEB-DLRip -> DVDRip: http://alt.rutor.org/torrent/340441/
    Видео: http://screenshotcomparison.com/comparison/90637 - у меня картинка несколько полнее и четче.
    Аудио: http://screenshotcomparison.com/comparison/90639 - аналогично предыдущему сравнению звуков
    Свернуть
    Инструкция по скачиванию
     1  Качаем uTorrent версии 2.0 и выше
     2  После установки, жмем выше под постером на ссылку Скачать [MediaGet] или Скачать .torrent
     3  Открываем скачанный файл через соответствующий клиент: MediaGet или uTorrent
     4  Ждем пока подключатся участники
     5  Качаем
    Комментарии о  Любовь в большом городе 3 [Серии 01-08 из 8] | DVDRip 
    Ближайшее в кино
    Вверх