• Игры для PS4
  • Игры для PS3
  • Игры для XBOX360
  • Игры для PC
  • Игры для PS2
  • Игры для PSP
  • Для телефонов
  • Музыка
  • Книги / Журналы
  • Обои
  • Опрос
    Откуда Вы о нас узнали?
      0
    • От знакомых2,1,false,300,full
    • Из социальных сетей2,2,false,300,full
    • Из поисковых систем2,3,false,300,full
    • Другое2,4,false,300,full
    Статистика
    Всего онлайн -
    Гостей -
    Пользователей -
    Короли трекера
    Благодарности () Закрыть
    «He just missed his daughter"s final call»

    Информация о фильме
    Название: Поиск
    Оригинальное название: Searching
    Год выхода: 2018
    Жанр: Триллер, драма, детектив
    Режиссер: Аниш Чаганти
    В ролях: Джон Чо, Сара Сон, Алекс Джейн Го, Меган Лю, Кья Рассвет Лау, Мишель Ла, Джозеф Ли, Доминик Хоффман, Сильвия Минасян, Мелисса Дисней

    О фильме:
    16-летняя дочь Дэвида Кима пропадает без следа, полиция разводит руками. Отчаявшийся отец взламывает компьютер девочки, чтобы понять, что он ничего не знает про дочь…



    Страна: США, Россия
    Студия: Bazelevs Entertainment, Bazelevs Production
    Продолжительность: 01:42:21
    Перевод: Профессиональный (полное дублирование) | iTunes

    Файл
    Качество: WEB-DL 1080p
    Формат: MKV
    Кодек: MPEG-4 AVC
    Видео: 1920x1080 (16:9), 23,976 fps, MPEG-4 AVC ~ 5178 Kbps avg, 0.104 bit/pixel
    Аудио: AC3, 48 kHz, 6 ch, ~384.00 kbps avg | русский | iTunes

    Субтитры: Отсутствуют

    Инфо-файл
    Общее
    Уникальный идентификатор                 : 187295015115901181670762810604000473886 (0x8CE7B532AEF3B7948DB3F8EE0631731E)
    Полное имя                               : SEARCHING (2018) WEB-DL 1080p_KAZTORKA.mkv
    Формат                                   : Matroska
    Версия формата                           : Version 4 / Version 2
    Размер файла                             : 3,98 Гбайт
    Продолжительность                        : 1 ч. 42 м.
    Общий поток                              : 5564 Кбит/сек
    Название фильма                          : SEARCHING (2018) WEB-DL 1080p_KAZTORKA
    Дата кодирования                         : UTC 2018-11-11 01:00:06
    Программа кодирования                    : mkvmerge v27.0.0 ("Metropolis") 64-bit
    Библиотека кодирования                   : libebml v1.3.6 + libmatroska v1.4.9

    Видео
    Идентификатор                            : 1
    Формат                                   : AVC
    Формат/Информация                        : Advanced Video Codec
    Профиль формата                          : High@L4
    Настройки формата                        : CABAC / 4 Ref Frames
    Параметр CABAC формата                   : Да
    Параметр RefFrames формата               : 4 кадра
    Идентификатор кодека                     : V_MPEG4/ISO/AVC
    Продолжительность                        : 1 ч. 42 м.
    Битрейт                                  : 5178 Кбит/сек
    Ширина                                   : 1920 пикселей
    Высота                                   : 1080 пикселей
    Соотношение сторон                       : 16:9
    Режим частоты кадров                     : Постоянный
    Частота кадров                           : 23,976 (23976/1000) кадра/сек
    Цветовое пространство                    : YUV
    Субдискретизация насыщенности            : 4:2:0
    Битовая глубина                          : 8 бит
    Тип развёртки                            : Прогрессивная
    Бит/(Пиксели*Кадры)                      : 0.104
    Размер потока                            : 3,70 Гбайт (93%)
    Заголовок                                : SEARCHING (2018) WEB-DL 1080p_KAZTORKA
    Язык                                     : English
    Default                                  : Да
    Forced                                   : Нет
    Цветовой диапазон                        : Limited
    Основные цвета                           : BT.709
    Характеристики трансфера                 : BT.709
    Коэффициенты матрицы                     : BT.709

    Аудио
    Идентификатор                            : 2
    Формат                                   : AC-3
    Формат/Информация                        : Audio Coding 3
    Идентификатор кодека                     : A_AC3
    Продолжительность                        : 1 ч. 42 м.
    Вид битрейта                             : Постоянный
    Битрейт                                  : 384 Кбит/сек
    Каналы                                   : 6 каналов
    Расположение каналов                     : Front: L C R, Side: L R, LFE
    Частота                                  : 48,0 КГц
    Частота кадров                           : 31,250 кадров/сек (1536 SPF)
    Битовая глубина                          : 16 бит
    Метод сжатия                             : С потерями
    Размер потока                            : 281 Мбайт (7%)
    Заголовок                                : iTunes | SEARCHING (2018) WEB-DL 1080p_KAZTORKA
    Язык                                     : Russian
    Default                                  : Да
    Forced                                   : Да

    Меню
    00:00:00.000                             : en:1
    00:06:24.384                             : en:2
    00:12:40.635                             : en:3
    00:20:12.545                             : en:4
    00:23:11.849                             : en:5
    00:31:00.651                             : en:6
    00:35:48.647                             : en:7
    00:39:38.460                             : en:8
    00:47:26.845                             : en:9
    00:53:30.708                             : en:10
    00:59:15.928                             : en:11
    01:05:28.216                             : en:12
    01:13:06.257                             : en:13
    01:21:13.619                             : en:14
    01:26:06.203                             : en:15
    01:34:31.791                             : en:16Свернуть


    Похожие раздачи Искать похожие
    Инструкция по скачиванию
     1  Качаем uTorrent версии 2.0 и выше
     2  После установки, жмем выше под постером на ссылку Скачать [MediaGet] или Скачать .torrent
     3  Открываем скачанный файл через соответствующий клиент: MediaGet или uTorrent
     4  Ждем пока подключатся участники
     5  Качаем
    Комментарии о  Поиск / Searching | WEB-DL 1080p 
    Ближайшее в кино
    Вверх