• Игры для PS4
  • Игры для PS3
  • Игры для XBOX360
  • Игры для PC
  • Игры для PS2
  • Игры для PSP
  • Для телефонов
  • Музыка
  • Книги / Журналы
  • Обои
  • Опрос
    Удобен ли сайт в использовании?
      0
    • Очень удобен, все понятно1,1,false,300,full
    • Удобен1,2,false,300,full
    • Средне1,3,false,300,full
    • Неудобен, трудно ориентироваться1,4,false,300,full
    • Совсем неудобен1,5,false,300,full
    Статистика
    Всего онлайн -
    Гостей -
    Пользователей -
    Короли трекера
    Благодарности () Закрыть
    Информация о фильме
    Название: Инкубус
    Оригинальное название: Incubus
    Год выхода: 1982
    Жанр: ужасы, триллер
    Режиссер: Джон Хаф
    В ролях: Джон Кассаветис, Джон Айрленд, Керри Кин, Хелен Хьюз, Эрин Ноубл, Дункан МакИнтош, Харви Аиткен, Гарри Дитсон, Митч Мартин, Мэтт Бирман и др.

    Описание: Доктор и шериф небольшого городка узнают, что одному из местных тинейджеров удалось в точности предсказать произошедшее убийство. Парень заявляет, что сцена преступления явилась ему в видении.



    Страна: Канада
    Продолжительность: 01:32:35
    Перевод: авторский (одноголосый закадровый) Михаил Иванов
    Cубтитры: английские (SDH)
    Оригинальная аудиодорожка: английский

    Файл
    Качество: BDRemux 1080р
    Видео: MPEG-4 AVC Video / 34864 kbps / 1080p / 23.976 fps / 16:9 / High Profile 4.1
    Аудио 1: Russian / AC-3 / 2.0 / 48 kHz / 192 kbps / 16-bit
    Аудио 2: English / DTS-HD Master Audio / 1.0 / 96 kHz / 1426 kbps / 24-bit (DTS Core: 1.0 / 48 kHz / 768 kbps / 24-bit)

    Скриншоты
    [screen]http://img10.lostpic.net/2018/12/01/931c3b50fa86aad135d32a1360a97291.png[/screen][screen]http://img10.lostpic.net/2018/12/01/437595578cf18a193c87fe6cade09619.png[/screen][screen]http://img10.lostpic.net/2018/12/01/1e511ba613938f1aea1f952f4a211496.png[/screen][screen]http://img10.lostpic.net/2018/12/01/fe5a6ea22bee61d18568e4272cc978ee.png[/screen][screen]http://img10.lostpic.net/2018/12/01/001afdb8fe913a91d8997b005e4e7660.png[/screen][screen]http://img10.lostpic.net/2018/12/01/313d59e4bf8b3f396d69298cd66db1a8.png[/screen][screen]http://img10.lostpic.net/2018/12/01/8f18a19e8dea92efc8522e9a68c87ad4.png[/screen][screen]http://img10.lostpic.net/2018/12/01/47864d1587b88ac59b5512908051bccb.png[/screen][screen]http://img10.lostpic.net/2018/12/01/26574048f1bab67616db399237acc490.png[/screen][screen]http://img10.lostpic.net/2018/12/01/b62a1cfb8c48a885914ee6516c66b60b.png[/screen][screen]http://img10.lostpic.net/2018/12/01/bb769de2eada9267223728e3ae0d7c39.png[/screen][screen]http://img10.lostpic.net/2018/12/01/26574048f1bab67616db399237acc490.png[/screen]Свернуть


    MediaInfo

    [font="Arial"]General
    Unique ID                      : 25347321659042236872540158902497572615 (0x1311B771BDF92EE5A1988BA23BC1F707)
    Complete name                  : Incubus.1982. Vinegar.Syndrome.BDRemux.1080p.mkv
    Format                         : Matroska
    Format version                 : Version 4 / Version 2
    File size                      : 23.6 GiB
    Duration                       : 1 h 32 min
    Overall bit rate mode          : Variable
    Overall bit rate               : 36.5 Mb/s
    Encoded date                   : UTC 2018-11-29 14:57:22
    Writing application            : mkvmerge v28.0.0 ("Voice In My Head") 32-bit
    Writing library                : libebml v1.3.6 + libmatroska v1.4.9

    Video
    ID                             : 1
    Format                         : AVC
    Format/Info                    : Advanced Video Codec
    Format profile                 : High@L4.1
    Format settings, CABAC         : Yes
    Format settings, RefFrames     : 3 frames
    Codec ID                       : V_MPEG4/ISO/AVC
    Duration                       : 1 h 32 min
    Bit rate mode                  : Variable
    Bit rate                       : 35.0 Mb/s
    Maximum bit rate               : 40.0 Mb/s
    Width                          : 1 920 pixels
    Height                         : 1 080 pixels
    Display aspect ratio           : 16:9
    Frame rate mode                : Constant
    Frame rate                     : 23.976 (24000/1001) FPS
    Standard                       : NTSC
    Color space                    : YUV
    Chroma subsampling             : 4:2:0
    Bit depth                      : 8 bits
    Scan type                      : Progressive
    Bits/(Pixel*Frame)             : 0.704
    Stream size                    : 22.5 GiB (96%)
    Writing library                : x264pro - Adobe CS Exporter Plug-in
    Encoding settings              : cabac=1 / ref=4 / deblock=1:-1:-1 / analyse=0x3:0x133 / me=umh / subme=10 / psy=1 / psy_rd=1.00:0.15 / mixed_ref=1 / me_range=24 / chroma_me=1 / trellis=2 / 8x8dct=1 / cqm=0 / deadzone=21,11 / fast_pskip=1 / chroma_qp_offset=-3 / threads=12 / lookahead_threads=2 / sliced_threads=0 / slices=4 / nr=0 / decimate=1 / interlaced=0 / bluray_compat=1 / constrained_intra=0 / bframes=3 / b_pyramid=1 / b_adapt=2 / b_bias=0 / direct=3 / weightb=1 / open_gop=0 / weightp=1 / keyint=24 / keyint_min=1 / scenecut=40 / intra_refresh=0 / rc_lookahead=24 / rc=2pass / mbtree=1 / bitrate=35000 / ratetol=1.0 / qcomp=0.60 / qpmin=0 / qpmax=69 / qpstep=4 / cplxblur=20.0 / qblur=0.5 / vbv_maxrate=40000 / vbv_bufsize=30000 / nal_hrd=vbr / ip_ratio=1.40 / aq=1:1.00
    Language                       : English
    Default                        : Yes
    Forced                         : No
    Color range                    : Limited
    Color primaries                : BT.709
    Transfer characteristics       : BT.709
    Matrix coefficients            : BT.709

    Audio #1
    ID                             : 2
    Format                         : AC-3
    Format/Info                    : Audio Coding 3
    Format settings, Endianness    : Big
    Codec ID                       : A_AC3
    Duration                       : 1 h 32 min
    Bit rate mode                  : Constant
    Bit rate                       : 192 kb/s
    Channel(s)                     : 2 channels
    Channel positions              : Front: L R
    Sampling rate                  : 48.0 kHz
    Frame rate                     : 31.250 FPS (1536 SPF)
    Bit depth                      : 16 bits
    Compression mode               : Lossy
    Stream size                    : 127 MiB (1%)
    Language                       : Russian
    Service kind                   : Complete Main
    Default                        : Yes
    Forced                         : No

    Audio #2
    ID                             : 3
    Format                         : DTS
    Format/Info                    : Digital Theater Systems
    Format profile                 : MA / Core
    Mode                           : 16
    Format settings, Endianness    : Big
    Codec ID                       : A_DTS
    Duration                       : 1 h 32 min
    Bit rate mode                  : Variable / Constant
    Bit rate                       : 1 411.2 kb/s / 768 kb/s
    Channel(s)                     : 1 channel
    Channel positions              : Front: C
    Sampling rate                  : 96.0 kHz / 48.0 kHz
    Frame rate                     : 93.750 FPS (512 SPF)
    Bit depth                      : 24 bits
    Compression mode               : Lossless / Lossy
    Stream size                    : 944 MiB (4%)
    Language                       : English
    Default                        : No
    Forced                         : No

    Text
    ID                             : 4
    Format                         : UTF-8
    Codec ID                       : S_TEXT/UTF8
    Codec ID/Info                  : UTF-8 Plain Text
    Duration                       : 1 h 29 min
    Bit rate                       : 45 b/s
    Count of elements              : 1172
    Stream size                    : 29.8 KiB (0%)
    Title                          : SDH
    Language                       : English
    Default                        : No
    Forced                         : No

    Menu
    00:00:00.000                   : :Chapter 01
    00:19:56.195                   : :Chapter 02
    00:41:10.968                   : :Chapter 03
    00:57:58.475                   : :Chapter 04
    01:14:10.446                   : :Chapter 05
    01:32:35.550                   : :Chapter 06
    Свернуть
    Похожие раздачи Искать похожие
    Инструкция по скачиванию
     1  Качаем uTorrent версии 2.0 и выше
     2  После установки, жмем выше под постером на ссылку Скачать [MediaGet] или Скачать .torrent
     3  Открываем скачанный файл через соответствующий клиент: MediaGet или uTorrent
     4  Ждем пока подключатся участники
     5  Качаем
    Комментарии о  Инкубус / Incubus | BDRemux 1080p 
    Ближайшее в кино
    Вверх