• Игры для PS4
  • Игры для PS3
  • Игры для XBOX360
  • Игры для PC
  • Игры для PS2
  • Игры для PSP
  • Для телефонов
  • Музыка
  • Книги / Журналы
  • Обои
  • Опрос
    Откуда Вы о нас узнали?
      0
    • От знакомых2,1,false,300,full
    • Из социальных сетей2,2,false,300,full
    • Из поисковых систем2,3,false,300,full
    • Другое2,4,false,300,full
    Статистика
    Всего онлайн -
    Гостей -
    Пользователей -
    Короли трекера
    Благодарности () Закрыть
    Как женить холостяка / Destination Wedding
    «Check your baggage»

    Год выпуска: 2018
    Страна: США
    Производство: Chapman-Leonard, CISS, Company 3
    Жанр:  Драма, мелодрама, комедия

    Режиссёр: Виктор Левин
    В ролях: Киану Ривз, Вайнона Райдер, Грег Люси, Тед Дюбо, Д. Рош Райт, Курт Дюбо, Донна Линн Джонс, Джеймс Галлардо, Скотт Эндрюс

    Перевод: Дублированный | [iTunes]
    Субтитры: Английские (SDH)
    Реклама: Отсутствует

    Описание: Закоренелый холостяк Фрэнк и коварная соблазнительница Линдси приглашены на одну свадьбу. Странным образом они везде оказываются вместе: в самолете, такси, в соседних номерах и за столом. Похоже, кто-то придумал хитроумный план поймать их в любовные сети и наконец женить холостяка.



    Качество: BDRip-AVC | BluRay Disc | Destination.Wedding.2018.MULTi.COMPLETE.BLURAY-BDA
    Продолжительность: 01:26:31

    Формат: MKV
    Видео кодек: MPEG-4 AVC
    Аудио кодек: AC3
    Видео: 720x302 (2,40:1), 23,976 fps, x264 ~1010 kbps avg, 0.194 bit/pixel
    Аудио : 48 kHz, AC3 Dolby Digital Plus, 2 (L,R) ch, ~ 192.00 kbps avg | RUS (iTunes)

    Дата премьеры (мир): 2 августа 2018
    Дата премьеры (РФ): 30 августа 2018, «Экспонента»

    MediaInfo

    Общее
    Уникальный идентификатор                 : 224958804373556528737259941614006291122 (0xA93D7D60E39335E8B468E0CA1213CAB2)
    Полное имя                               : D:ВидеоDestination.Wedding.2018.x264.BDRip(AVC).OlLanDGroup.mkv
    Формат                                   : Matroska
    Версия формата                           : Version 4 / Version 2
    Размер файла                             : 745 Мбайт
    Продолжительность                        : 1 ч. 26 м.
    Общий поток                              : 1204 Кбит/сек
    Название фильма                          : Destination Wedding 2018. Rip by Vovan366
    Дата кодирования                         : UTC 2018-12-01 08:55:59
    Программа кодирования                    : mkvmerge v28.2.0 ("The Awakening") 64-bit
    Библиотека кодирования                   : libebml v1.3.6 + libmatroska v1.4.9
    DURATION                                 : 01:20:46.458000000
    NUMBER_OF_FRAMES                         : 1520
    NUMBER_OF_BYTES                          : 75453
    _STATISTICS_WRITING_APP                  : mkvmerge v28.2.0 ("The Awakening") 64-bit
    _STATISTICS_WRITING_DATE_UTC             : 2018-12-01 08:55:59
    _STATISTICS_TAGS                         : BPS DURATION NUMBER_OF_FRAMES NUMBER_OF_BYTES
    Attachment                               : Yes

    Видео
    Идентификатор                            : 1
    Формат                                   : AVC
    Формат/Информация                        : Advanced Video Codec
    Профиль формата                          : High@L4.1
    Параметр CABAC формата                   : Да
    Параметр ReFrames формата                : 9 кадров
    Идентификатор кодека                     : V_MPEG4/ISO/AVC
    Продолжительность                        : 1 ч. 26 м.
    Битрейт                                  : 1010 Кбит/сек
    Ширина                                   : 720 пикселей
    Высота                                   : 302 пикселя
    Соотношение сторон                       : 2,40:1
    Режим частоты кадров                     : Постоянный
    Частота кадров                           : 24,000 кадра/сек
    Цветовое пространство                    : YUV
    Субдискретизация насыщенности            : 4:2:0
    Битовая глубина                          : 8 бит
    Тип развёртки                            : Прогрессивная
    Бит/(Пиксели*Кадры)                      : 0.194
    Размер потока                            : 612 Мбайт (82%)
    Заголовок                                : Destination.Wedding.2018.x264.BDRip(AVC).OlLanDGroup
    Библиотека кодирования                   : x264 core 146 r2538 121396c
    Настройки программы                      : cabac=1 / ref=9 / deblock=1:-3:-3 / analyse=0x3:0x133 / me=umh / subme=11 / psy=1 / psy_rd=1.00:0.00 / mixed_ref=1 / me_range=32 / chroma_me=1 / trellis=2 / 8x8dct=1 / cqm=0 / deadzone=21,11 / fast_pskip=0 / chroma_qp_offset=-2 / threads=6 / lookahead_threads=1 / sliced_threads=0 / nr=0 / decimate=0 / interlaced=0 / bluray_compat=0 / constrained_intra=0 / bframes=10 / b_pyramid=2 / b_adapt=1 / b_bias=0 / direct=3 / weightb=1 / open_gop=0 / weightp=2 / keyint=240 / keyint_min=23 / scenecut=40 / intra_refresh=0 / rc_lookahead=40 / rc=2pass / mbtree=0 / bitrate=1010 / ratetol=1.0 / qcomp=0.60 / qpmin=0 / qpmax=69 / qpstep=4 / cplxblur=20.0 / qblur=0.5 / vbv_maxrate=50000 / vbv_bufsize=52500 / nal_hrd=none / filler=0 / ip_ratio=1.40 / pb_ratio=1.30 / aq=1:1.00
    Default                                  : Да
    Forced                                   : Нет

    Аудио
    Идентификатор                            : 2
    Формат                                   : AC-3
    Формат/Информация                        : Audio Coding 3
    Расширение режима                        : CM (complete main)
    Параметр Endianness формата              : Big
    Идентификатор кодека                     : A_AC3
    Продолжительность                        : 1 ч. 26 м.
    Вид битрейта                             : Постоянный
    Битрейт                                  : 192 Кбит/сек
    Каналы                                   : 2 канала
    Расположение каналов                     : Front: L R
    Частота                                  : 48,0 КГц
    Битовая глубина                          : 16 бит
    Метод сжатия                             : С потерями
    Размер потока                            : 119 Мбайт (16%)
    Заголовок                                : iTunes
    Язык                                     : Russian
    Default                                  : Да
    Forced                                   : Нет

    Текст
    Идентификатор                            : 3
    Формат                                   : UTF-8
    Идентификатор кодека                     : S_TEXT/UTF8
    Идентификатор кодека/Информация          : UTF-8 Plain Text
    Заголовок                                : SDH Colored
    Язык                                     : English
    Default                                  : Нет
    Forced                                   : Нет

    Меню
    00:00:00.000                             : en:Chapter 1
    00:08:57.792                             : en:Chapter 2
    00:14:35.042                             : en:Chapter 3
    00:22:16.542                             : en:Chapter 4
    00:28:27.667                             : en:Chapter 5
    00:36:07.708                             : en:Chapter 6
    00:41:29.167                             : en:Chapter 7
    00:49:59.583                             : en:Chapter 8
    00:58:12.250                             : en:Chapter 9
    01:06:43.417                             : en:Chapter 10
    01:15:41.250                             : en:Chapter 11
    01:21:28.708                             : en:Chapter 12

    Свернуть


    [img]http://lostpix.com/img/2018-12/01/keqyhw80zci9rb586bta2y04k.jpg[/img][img]http://lostpix.com/img/2018-12/01/bgpe7zpafdh2ahrcpquqksmlb.jpg[/img][img]http://lostpix.com/img/2018-12/01/nd1n7apcqu9f0kcgcote50zlk.jpg[/img][img]http://lostpix.com/img/2018-12/01/hywibz9pv05xpowunv6p39sgr.jpg[/img][img]http://lostpix.com/img/2018-12/01/xarml2u0n3bc1qy1kmfz91cuw.jpg[/img]
    Похожие раздачи Искать похожие
    Инструкция по скачиванию
     1  Качаем uTorrent версии 2.0 и выше
     2  После установки, жмем выше под постером на ссылку Скачать [MediaGet] или Скачать .torrent
     3  Открываем скачанный файл через соответствующий клиент: MediaGet или uTorrent
     4  Ждем пока подключатся участники
     5  Качаем
    Комментарии о  Как женить холостяка / Destination Wedding | BDRip-AVC 
    Ближайшее в кино
    Вверх