• Игры для PS4
  • Игры для PS3
  • Игры для XBOX360
  • Игры для PC
  • Игры для PS2
  • Игры для PSP
  • Для телефонов
  • Музыка
  • Книги / Журналы
  • Обои
  • Опрос
    Удобен ли сайт в использовании?
      0
    • Очень удобен, все понятно1,1,false,300,full
    • Удобен1,2,false,300,full
    • Средне1,3,false,300,full
    • Неудобен, трудно ориентироваться1,4,false,300,full
    • Совсем неудобен1,5,false,300,full
    Статистика
    Всего онлайн -
    Гостей -
    Пользователей -
    Короли трекера
    Благодарности () Закрыть
    Информация о фильме
    Название: Множество
    Оригинальное название: Multiplicity
    Год выхода: 1996
    Жанр:  Комедия, Фантастика
    Режиссер: Харолд Рэймис
    В ролях: Майкл Китон, Энди МакДауэлл, Харрис Юлин, Ричард Мазур, Юджин Ливай, Обба Бабатунде, Энн Кьюсак, Джон Де Лэнси, Брайан Дойл Мюррэй, Джули Бауэн, Зэк Духаме, Кэти Шлоссберг

    О фильме:
    Что делать, когда у вас слишком много дел, а времени катастрофически не хватает? Дуг Кинни находит ответ на этот вопрос - посылать по своим делам двойников, и дело с концом! Но решение задачи, казавшееся таким простым, оборачивается крупной проблемой - с двойников за все их проделки взятки, как говорится, гладки, а ему, настоящему Дугу Кинни, придется отдуваться за всех!



    Страна: США
    Студия: Columbia Pictures Corporation
    Продолжительность: 01:52:03
    Перевод: Профессиональный (дублированный) CPIG + Профессиональный (многоголосый, закадровый) ?
    Субтитры: Русские, английские

    Файл
    Кодек: x264
    Качество: WEB-DLRip-AVC
    Видео: 1036x438, ~3305 kbps, 23,976 fps
    Аудио #1: AC-3, 6 ch, 384 kbps (Rus) - Dub CPIG
    Аудио #2: AC-3, 2 ch, 192 kbps (Rus) - MVO

    ***Релиз от: -=DoMiNo=-

    M/I
    General
    Unique ID                   : 254564356341218746919562511013216835671 (0xBF834FC9491089BA0FA743770D44D857)
    Complete name               : Множество_(1996)_WEB_DLRIP-AVC_[-=DoMiNo=-].mkv
    Format                      : Matroska
    Format version              : Version 4
    File size                   : 3.24 GiB
    Duration                    : 1 h 57 min
    Overall bit rate            : 3 960 kb/s
    Movie name                  : Множество
    Deion                 : Даг Кинни работает в строительно-ремонтной компании. Он целыми днями крутится как белка в колесе, но денег все равно не хватает. Хуже всего, что кроме денег катастрофически не хватает еще и времени. Ни на что, даже на полноценное общение с женой и дочерью. Даг постоянно мечется между семьей и работой, понимая, что долго так не протянет. Помощь приходит неожиданно. Знакомый ученый-генетик Оуэн Лидс предлагает гениальное решение проблемы: клонировать Дага. Тогда, как минимум, два двойника будут запросто успевать делать то, до чего не дошли руки у хозяина. Чем не выход из ситуации?
    Attachments                 : poster.jpg
    ACTORS                      : Michael Keaton, Andie MacDowell, Harris Yulin, Eugene Levy, Zack Duhame, Katie Schlossberg, Richard Masur, Ann Cusack, John de Lancie, Judith Kahan, Brian Doyle-Murray, Obba Babatundé, Julie Bowen, Dawn Maxey, Kari Coleman, Steven Kampmann, Michael Milhoan, Skip Stellrecht, Jim Piddock, Robin Duke, Suzanne Herrington, Robert Ridgely, Glenn Shadix, Dennis R. Lyell, Richard Plon, Harold Plon, Justine A. Johnston, George Wallace, Michael Klesic
    COUNTRY                     : United States
    DATE                        : 1996-07-19
    DIRECTOR                    : Harold Ramis
    GENRE                       : комедия, фэнтези, фантастика
    ITUNEXTC                    : mpaa|PG-13|300|
    ORIGINAL_TITLE              : Multiplicity
    PRODUCER                    : Lee R. Mayes, Harold Ramis
    PUBLISHER                   : Columbia Pictures
    RATING                      : 6.95
    WRITER                      : Lowell Ganz, Mary Hale, Chris Miller, Babaloo Mandel

    Video
    ID                          : 1
    Format                      : AVC
    Format/Info                 : Advanced Video Codec
    Format profile              : High@L4.1
    Format settings             : CABAC / 12 Ref Frames
    Format settings, CABAC      : Yes
    Format settings, ReFrames   : 12 frames
    Codec ID                    : V_MPEG4/ISO/AVC
    Duration                    : 1 h 57 min
    Bit rate                    : 3 305 kb/s
    Width                       : 1 036 pixels
    Height                      : 438 pixels
    Display aspect ratio        : 2.35:1
    Frame rate mode             : Constant
    Frame rate                  : 23.976 (24000/1001) FPS
    Color space                 : YUV
    Chroma subsampling          : 4:2:0
    Bit depth                   : 8 bits
    Scan type                   : Progressive
    Bits/(Pixel*Frame)          : 0.304
    Stream size                 : 2.71 GiB (83%)
    Title                       : RIP_BY_-=DoMiNo=-
    Writing library             : x264 core 157 r2901M 7d0ff22
    Encoding settings           : cabac=1 / ref=12 / deblock=1:-3:-3 / analyse=0x3:0x133 / me=umh / subme=10 / psy=1 / psy_rd=1.05:0.10 / mixed_ref=1 / me_range=32 / chroma_me=1 / trellis=2 / 8x8dct=1 / cqm=0 / deadzone=21,11 / fast_pskip=1 / chroma_qp_offset=-3 / threads=6 / lookahead_threads=1 / sliced_threads=0 / nr=0 / decimate=1 / interlaced=0 / bluray_compat=0 / constrained_intra=0 / bframes=12 / b_pyramid=2 / b_adapt=2 / b_bias=0 / direct=1 / weightb=1 / open_gop=0 / weightp=2 / keyint=250 / keyint_min=24 / scenecut=40 / intra_refresh=0 / rc=crf / mbtree=0 / crf=18.0 / qcomp=0.80 / qpmin=16 / qpmax=69 / qpstep=4 / ip_ratio=1.40 / pb_ratio=1.30 / aq=3:0.80
    Language                    : English
    Default                     : Yes
    Forced                      : No
    Color range                 : Limited
    Color primaries             : BT.709
    Transfer characteristics    : BT.709
    Matrix coefficients         : BT.709

    Audio #1
    ID                          : 2
    Format                      : AC-3
    Format/Info                 : Audio Coding 3
    Commercial name             : Dolby Digital
    Codec ID                    : A_AC3
    Duration                    : 1 h 57 min
    Bit rate mode               : Constant
    Bit rate                    : 384 kb/s
    Channel(s)                  : 6 channels
    Channel layout              : L R C LFE Ls Rs
    Sampling rate               : 48.0 kHz
    Frame rate                  : 31.250 FPS (1536 SPF)
    Bit depth                   : 16 bits
    Compression mode            : Lossy
    Stream size                 : 322 MiB (10%)
    Title                       : Dub CPIG
    Language                    : Russian
    Service kind                : Complete Main
    Default                     : Yes
    Forced                      : No

    Audio #2
    ID                          : 3
    Format                      : AC-3
    Format/Info                 : Audio Coding 3
    Commercial name             : Dolby Digital
    Codec ID                    : A_AC3
    Duration                    : 1 h 57 min
    Bit rate mode               : Constant
    Bit rate                    : 192 kb/s
    Channel(s)                  : 2 channels
    Channel layout              : L R
    Sampling rate               : 48.0 kHz
    Frame rate                  : 31.250 FPS (1536 SPF)
    Bit depth                   : 16 bits
    Compression mode            : Lossy
    Stream size                 : 161 MiB (5%)
    Title                       : MVO
    Language                    : Russian
    Service kind                : Complete Main
    Default                     : No
    Forced                      : No

    Text #1
    ID                          : 4
    Format                      : UTF-8
    Codec ID                    : S_TEXT/UTF8
    Codec ID/Info               : UTF-8 Plain Text
    Language                    : Russian
    Default                     : Yes
    Forced                      : No

    Text #2
    ID                          : 5
    Format                      : UTF-8
    Codec ID                    : S_TEXT/UTF8
    Codec ID/Info               : UTF-8 Plain Text
    Language                    : English
    Default                     : No
    Forced                      : No

    Menu
    00:00:00.000                : :Глава 1
    00:13:03.366                : :Глава 2
    00:25:39.371                : :Глава 3
    00:38:10.079                : :Глава 4
    00:50:08.047                : :Глава 5
    01:01:13.170                : :Глава 6
    01:11:34.582                : :Глава 7
    01:22:00.624                : :Глава 8
    01:32:29.878                : :Глава 9
    01:45:58.936                : :Глава 10
    01:53:34.558                : :Глава 11Свернуть


    Скриншоты
    [screen]http://img14.lostpic.net/2018/12/01/1fea4c7e848aa8a5602f653516f0fe34.png[/screen][screen]http://img14.lostpic.net/2018/12/01/6f1b21f08b1e21df659525a100d2ae00.png[/screen][screen]http://img14.lostpic.net/2018/12/01/51c180911a8a385f11bcde02bb1f9d5a.png[/screen][screen]http://img14.lostpic.net/2018/12/01/4872ace2ff792084ebd40de1e6e221cf.png[/screen][screen]http://img14.lostpic.net/2018/12/01/02e6c5a94deb2bfd5a4a9d739cd6da1d.png[/screen][screen]http://img14.lostpic.net/2018/12/01/1a490947b88947d88ac085f29f7d1d87.png[/screen][screen]http://img14.lostpic.net/2018/12/01/2b58e4144f36c763610b850e143db70a.png[/screen][screen]http://img14.lostpic.net/2018/12/01/938c0fe386357c7f4493d756bad22d48.png[/screen][screen]http://img14.lostpic.net/2018/12/01/26e2ea0c5b3348eb9292765a22cf8d6f.png[/screen][screen]http://img14.lostpic.net/2018/12/01/5c3f24fdfcb9a987d7eb19ab28fd304b.png[/screen][screen]http://img14.lostpic.net/2018/12/01/6c64c6d5147cfdbfb3ceefcf4bd0e0be.png[/screen][screen]http://img14.lostpic.net/2018/12/01/bda769434f17ac8e8b1765ec3ca9d07a.png[/screen][screen]http://img14.lostpic.net/2018/12/01/02e6c5a94deb2bfd5a4a9d739cd6da1d.png[/screen][screen]http://img14.lostpic.net/2018/12/01/d9a700b083538a15032eba688a72fad4.png[/screen]Свернуть
    Похожие раздачи Искать похожие
    Инструкция по скачиванию
     1  Качаем uTorrent версии 2.0 и выше
     2  После установки, жмем выше под постером на ссылку Скачать [MediaGet] или Скачать .torrent
     3  Открываем скачанный файл через соответствующий клиент: MediaGet или uTorrent
     4  Ждем пока подключатся участники
     5  Качаем
    Комментарии о  Множество / Multiplicity | WEB-DLRip-AVC 
    Ближайшее в кино
    Вверх