• Игры для PS4
  • Игры для PS3
  • Игры для XBOX360
  • Игры для PC
  • Игры для PS2
  • Игры для PSP
  • Для телефонов
  • Музыка
  • Книги / Журналы
  • Обои
  • Опрос
    Откуда Вы о нас узнали?
      0
    • От знакомых2,1,false,300,full
    • Из социальных сетей2,2,false,300,full
    • Из поисковых систем2,3,false,300,full
    • Другое2,4,false,300,full
    Статистика
    Всего онлайн -
    Гостей -
    Пользователей -
    Короли трекера
    Благодарности () Закрыть
    Информация о фильме
    Название: Юность без бога
    Оригинальное название: Jugend ohne Gott
    Год выхода: 2017
    Жанр: фантастика, триллер, драма, криминал
    Режиссер: Ален Гспонер
    В ролях: Яннис Нивёнер, Фахри Огюн Ярдим, Эмилия Шуле, Алисия фон Риттберг, Янник Шуманн, Анна Мария Мюэ, Райнер Бок, Катарина Мюллер-Эльмау, Ирис Бербен, Карен Бёне

    О фильме:
    Будущее. Пробиться в ряды управления и власти могут только выпускники элитных университетов. Чтобы попасть туда, потенциальные соискатели должны пройти изматывающую и опасную тренировку в специальных лагерях.



    Страна: Германия
    Студия: Constantin Film, d.i.e. Film GmbH
    Продолжительность: 01:54:02
    Перевод: Профессиональный многоголосый, закадровый [SDI Media]

    Файл
    Кодек: H.264
    Качество: BDRip 720p
    Видео: MPEG-4 / AVC, 1280x534 (2.40:1), 23.976 fps ~ 6760 Kbps
    Звук:
    АС3, 48 KHz, 6 ch ~ 448 Kb/s (русский)
    DTS, 48 KHz, 6 ch, 1510 Kb/s (немецкий)
    Субтитры: английские, немецкие

    MI

    Общее
    Уникальный идентификатор : 300638592996042844765580313743587133100 (0xE22CE309D7FB1891A97E92CEA81DC6AC)
    Полное имя : Q:TorFJugend.ohne.Gott.2017.720p.BluRay.DTS.x264-EA.mkv
    Формат : Matroska
    Версия формата : Version 4 / Version 2
    Размер файла : 7,09 Гбайт
    Продолжительность : 1 ч. 54 м.
    Общий поток : 8897 Кбит/сек
    Дата кодирования : UTC 2018-11-29 12:11:53
    Программа кодирования : mkvmerge v19.0.0 ("Brave Captain") 64-bit
    Библиотека кодирования : libebml v1.3.5 + libmatroska v1.4.8
    DURATION : 01:54:01.483000000
    NUMBER_OF_FRAMES : 641389
    NUMBER_OF_BYTES : 1290474668
    _STATISTICS_WRITING_APP : mkvmerge v19.0.0 ("Brave Captain") 64-bit
    _STATISTICS_WRITING_DATE_UTC : 2018-11-29 12:11:53
    _STATISTICS_TAGS : BPS DURATION NUMBER_OF_FRAMES NUMBER_OF_BYTES
    Attachment : Yes

    Видео
    Идентификатор : 1
    Формат : AVC
    Формат/Информация : Advanced Video Codec
    Профиль формата : High@L4.1
    Параметр CABAC формата : Да
    Параметр ReFrames формата : 12 кадров
    Идентификатор кодека : V_MPEG4/ISO/AVC
    Продолжительность : 1 ч. 54 м.
    Битрейт : 6762 Кбит/сек
    Ширина : 1280 пикселей
    Высота : 534 пикселя
    Соотношение сторон : 2,40:1
    Частота кадров : 24,000 кадра/сек
    Цветовое пространство : YUV
    Субдискретизация насыщенности : 4:2:0
    Битовая глубина : 8 бит
    Тип развёртки : Прогрессивная
    Бит/(Пиксели*Кадры) : 0.412
    Размер потока : 5,39 Гбайт (76%)
    Библиотека кодирования : x264 core 155 r2867+74 66b5600 t_mod_Custom_2 [8-bit@all X86_64]
    Настройки программы : cabac=1 / ref=12 / deblock=1:-3:-3 / analyse=0x3:0x113 / me=umh / subme=10 / psy=1 / fade_compensate=0.00 / psy_rd=1.03:0.00 / mixed_ref=1 / me_range=32 / chroma_me=1 / trellis=2 / 8x8dct=1 / cqm=0 / deadzone=21,11 / fast_pskip=0 / chroma_qp_offset=-2 / threads=17 / lookahead_threads=2 / sliced_threads=0 / nr=0 / decimate=0 / interlaced=0 / bluray_compat=0 / constrained_intra=0 / fgo=0 / bframes=8 / b_pyramid=2 / b_adapt=2 / b_bias=0 / direct=3 / weightb=1 / open_gop=0 / weightp=2 / keyint=240 / keyint_min=24 / scenecut=40 / intra_refresh=0 / rc_lookahead=60 / rc=crf / mbtree=0 / crf=15.2000 / qcomp=0.75 / qpmin=0:0:0 / qpmax=69:69:69 / qpstep=4 / vbv_maxrate=62500 / vbv_bufsize=78125 / crf_max=0.0 / nal_hrd=none / filler=0 / ip_ratio=1.30 / pb_ratio=1.20 / aq=3:0.85 / aq-sensitivity=10.00 / aq-factor=1.00:1.00:1.00 / aq2=1:0.75 / aq2-sensitivity=15.00 / aq2-factor=1.00:1.00:1.00 / aq3=1:[0.75:0.75]:[0.75:0.75]:[0.75:0.75]:[0.75:0.75] / aq3-sensitivity=10.00 / aq3-factor=[1.00:1.00]:[1.00:1.00]:[1.00:1.00] / aq3-boundary=192:64:24
    Язык : German
    Default : Да
    Forced : Нет
    DURATION : 01:54:02.292000000
    NUMBER_OF_FRAMES : 164215
    NUMBER_OF_BYTES : 5912672298
    _STATISTICS_WRITING_APP : mkvmerge v19.0.0 ("Brave Captain") 64-bit
    _STATISTICS_WRITING_DATE_UTC : 2018-11-29 12:11:53
    _STATISTICS_TAGS : BPS DURATION NUMBER_OF_FRAMES NUMBER_OF_BYTES
    Основные цвета : BT.709-5, BT.1361, IEC 61966-2-4, SMPTE RP177
    Характеристики трансфера : BT.709-5, BT.1361
    Коэффициенты матрицы : BT.709-5, BT.1361, IEC 61966-2-4 709, SMPTE RP177

    Аудио #1
    Идентификатор : 2
    Формат : AC-3
    Формат/Информация : Audio Coding 3
    Расширение режима : CM (complete main)
    Идентификатор кодека : A_AC3
    Продолжительность : 1 ч. 54 м.
    Вид битрейта : Постоянный
    Битрейт : 448 Кбит/сек
    Каналы : 6 каналов
    Расположение каналов : Front: L C R, Side: L R, LFE
    Частота : 48,0 КГц
    Битовая глубина : 16 бит
    Метод сжатия : С потерями
    Размер потока : 365 Мбайт (5%)
    Заголовок : SDI Media
    Язык : Russian
    Default : Да
    Forced : Нет

    Аудио #2
    Идентификатор : 3
    Формат : DTS
    Формат/Информация : Digital Theater Systems
    Идентификатор кодека : A_DTS
    Продолжительность : 1 ч. 54 м.
    Вид битрейта : Постоянный
    Битрейт : 1510 Кбит/сек
    Каналы : 6 каналов
    Расположение каналов : Front: L C R, Side: L R, LFE
    Частота : 48,0 КГц
    Битовая глубина : 24 бит
    Метод сжатия : С потерями
    Размер потока : 1,20 Гбайт (17%)
    Язык : German
    Default : Нет
    Forced : Нет

    Текст #1
    Идентификатор : 4
    Формат : UTF-8
    Идентификатор кодека : S_TEXT/UTF8
    Идентификатор кодека/Информация : UTF-8 Plain Text
    Заголовок : srt
    Язык : English
    Default : Нет
    Forced : Нет

    Текст #2
    Идентификатор : 5
    Формат : PGS
    Режим смешивания : zlib
    Идентификатор кодека : S_HDMV/PGS
    Идентификатор кодека/Информация : The same subtitle format used on BDs/HD-DVDs
    Заголовок : sup
    Язык : English
    Default : Нет
    Forced : Нет

    Текст #3
    Идентификатор : 6
    Формат : PGS
    Режим смешивания : zlib
    Идентификатор кодека : S_HDMV/PGS
    Идентификатор кодека/Информация : The same subtitle format used on BDs/HD-DVDs
    Заголовок : sup
    Язык : German
    Default : Нет
    Forced : Нет

    Меню
    00:00:00.000 : en:00:00:00.000
    00:04:37.208 : en:00:04:37.208
    00:10:35.583 : en:00:10:35.583
    00:17:01.417 : en:00:17:01.417
    00:21:54.208 : en:00:21:54.208
    00:29:45.375 : en:00:29:45.375
    00:36:16.458 : en:00:36:16.458
    00:41:02.083 : en:00:41:02.083
    00:48:20.083 : en:00:48:20.083
    00:51:33.583 : en:00:51:33.583
    00:58:48.500 : en:00:58:48.500
    01:05:21.667 : en:01:05:21.667
    01:10:32.250 : en:01:10:32.250
    01:17:06.375 : en:01:17:06.375
    01:24:24.458 : en:01:24:24.458
    01:29:47.250 : en:01:29:47.250
    01:35:03.167 : en:01:35:03.167
    01:41:00.500 : en:01:41:00.500
    01:46:21.958 : en:01:46:21.958
    01:49:43.708 : en:01:49:43.708
    Свернуть


    Инструкция по скачиванию
     1  Качаем uTorrent версии 2.0 и выше
     2  После установки, жмем выше под постером на ссылку Скачать [MediaGet] или Скачать .torrent
     3  Открываем скачанный файл через соответствующий клиент: MediaGet или uTorrent
     4  Ждем пока подключатся участники
     5  Качаем
    Комментарии о  Юность без бога / Jugend ohne Gott | BDRip 720p 
    Ближайшее в кино
    Вверх