• Игры для PS4
  • Игры для PS3
  • Игры для XBOX360
  • Игры для PC
  • Игры для PS2
  • Игры для PSP
  • Для телефонов
  • Музыка
  • Книги / Журналы
  • Обои
  • Опрос
    Откуда Вы о нас узнали?
      0
    • От знакомых2,1,false,300,full
    • Из социальных сетей2,2,false,300,full
    • Из поисковых систем2,3,false,300,full
    • Другое2,4,false,300,full
    Статистика
    Всего онлайн -
    Гостей -
    Пользователей -
    Короли трекера
    Благодарности () Закрыть
    Информация о фильме
    Название: Сказание о чудовище
    Оригинальное название: The Legend of the Monster
    Год выхода: 2016
    Жанр: фантастика
    Режиссер: Чжан Ли
    В ролях: Чжан Бинь Бинь, Ван И Цзя, Ян Ши Хань

    О фильме:
    3018 год, Параллельная вселенная. Монстры и чудовища, злые демоны и бесы, живут среди людей, скрывая свою истинную сущность. Они развивались вместе с людьми и тайно строили против них заговоры. Но всё же и среди монстров и среди людей есть такие, которые считают, что люди и мистические существа могут жить вместе в гармонии. Для того чтобы сохранить мир между двумя сторонами три друга из разных классов объединяют свои силы.

    Примечание:добавлены новые серии.

    [img]http://imdb.snick.ru/ratefor/02/tt6973660.png[/img]
    Страна: Китай
    Студия: iQiyi
    Продолжительность: ~ 25 мин. серия
    Перевод: Любительский, двухголосый, закадровый (студия "XDUB DORAMA", перевод на русский: FSG Scorpions, закадровый текст читали: Kobayashi и Gyllor, тайминг и работа со звуком: Gyllor)

    Файл
    Кодек: V_MPEG4/ISO/AVC
    Качество: WEBRip 1080p
    Видео: 1920x1080 (16:9), 25.000 FPS, 1609 kb/s
    Звук: mp3, 48.0 KHz, 2ch, 192 kb/s
    Субтитры: китайские (хардсаб)



    MediaInfo
    General
    Unique ID                                : 225028778718769926816657954275384692840 (0xA94AF7614B3BD38381DF810015411068)
    Complete name                            : The.Legend.of.the.Monster.EP01.1080p.WEBRip.mkv
    Format                                   : Matroska
    Format version                           : Version 2
    File size                                : 346 MiB
    Duration                                 : 26 min 21 s
    Overall bit rate                         : 1 838 kb/s
    Encoded date                             : UTC 2017-07-25 23:14:44
    Writing application                      : mkvmerge v4.1.1 ("Bouncin" Back") сборка от Jul  3 2010 22:54:08
    Writing library                          : libebml v1.0.0 + libmatroska v1.0.0

    Video
    ID                                       : 1
    Format                                   : AVC
    Format/Info                              : Advanced Video Codec
    Format profile                           : High@L4
    Format settings, CABAC                   : Yes
    Format settings, RefFrames               : 3 frames
    Codec ID                                 : V_MPEG4/ISO/AVC
    Duration                                 : 26 min 21 s
    Bit rate                                 : 1 609 kb/s
    Width                                    : 1 920 pixels
    Height                                   : 1 080 pixels
    Display aspect ratio                     : 16:9
    Frame rate mode                          : Constant
    Frame rate                               : 25.000 FPS
    Color space                              : YUV
    Chroma subsampling                       : 4:2:0
    Bit depth                                : 8 bits
    Scan type                                : Progressive
    Bits/(Pixel*Frame)                       : 0.031
    Stream size                              : 303 MiB (88%)
    Writing library                          : qiyi.com vtc-test
    Default                                  : Yes
    Forced                                   : No
    Color range                              : Limited
    Color primaries                          : BT.709
    Transfer characteristics                 : BT.709
    Matrix coefficients                      : BT.709

    Audio
    ID                                       : 2
    Format                                   : MPEG Audio
    Format version                           : Version 1
    Format profile                           : Layer 3
    Mode                                     : Joint stereo
    Mode extension                           : MS Stereo
    Muxing mode                              : Header stripping
    Codec ID                                 : A_MPEG/L3
    Codec ID/Hint                            : MP3
    Duration                                 : 26 min 21 s
    Bit rate mode                            : Constant
    Bit rate                                 : 192 kb/s
    Channel(s)                               : 2 channels
    Sampling rate                            : 48.0 kHz
    Compression mode                         : Lossy
    Delay relative to video                  : -80 ms
    Stream size                              : 36.2 MiB (10%)
    Default                                  : Yes
    Forced                                   : No
    Свернуть
    Похожие раздачи Искать похожие
    Инструкция по скачиванию
     1  Качаем uTorrent версии 2.0 и выше
     2  После установки, жмем выше под постером на ссылку Скачать [MediaGet] или Скачать .torrent
     3  Открываем скачанный файл через соответствующий клиент: MediaGet или uTorrent
     4  Ждем пока подключатся участники
     5  Качаем
    Комментарии о  Сказание о чудовище / The Legend of the Monster [Серии 01-07 из 20] | WEBRip 1080p 
    Ближайшее в кино
    Вверх