• Игры для PS4
  • Игры для PS3
  • Игры для XBOX360
  • Игры для PC
  • Игры для PS2
  • Игры для PSP
  • Для телефонов
  • Музыка
  • Книги / Журналы
  • Обои
  • Опрос
    Откуда Вы о нас узнали?
      0
    • От знакомых2,1,false,300,full
    • Из социальных сетей2,2,false,300,full
    • Из поисковых систем2,3,false,300,full
    • Другое2,4,false,300,full
    Статистика
    Всего онлайн -
    Гостей -
    Пользователей -
    Короли трекера
    Благодарности () Закрыть
    Информация о фильме
    Название: Вечная жизнь Александра Христофорова
    Год выпуска: 2018
    Жанр: Комедия
    Режиссер: Евгений Шелякин
    В ролях: Алексей Гуськов, Оксана Фандера, Роман Курцын, Лидия Вележева, Полина Пушкарук, Станислав Любшин

    О фильме:
    В прошлом Христофоров был звездой театра и кино, теперь он массовик в курортном городке. Но бывший актер не отчаивается, живет здесь и сейчас. И пусть бывшая жена строит козни, а сын его избегает, Христофоров упорно двигается дальше. После скандального увольнения фортуна делает герою сказочный подарок в виде любимой женщины. Поможет ли встреча изменить жизнь вечного неудачника?



    Страна: Россия
    Студия: «58,5 ПРОДАКШН»
    Продолжительность: 01:44:34
    Перевод: Не требуется
    Субтитры: нет

    Файл
    Формат: avi
    Качество: WEB-DLRip
    Видео: XviD build 73, 688x288 (2.40:1), 24.000 fps, 861 Kbps (0.181 bit/pixel)
    Звук: 48.0 kHz, MP3, 2/0 ch, 128 kbps

    MediaInfo
    General
    Complete name               : D:RazdachiVechnaja.Zhiznj.A.Hristoforova.2018.XviD.WEB-DLRip.GeneralFilm.avi
    Format                      : AVI
    Format/Info                 : Audio Video Interleave
    File size                   : 747 MiB
    Duration                    : 1 h 44 min
    Overall bit rate            : 998 kb/s
    Writing application         : VirtualDubMod 1.5.10.3 | www.virtualdub-fr.org || (build 2550/release)
    Writing library             : VirtualDubMod build 2550/release

    Video
    ID                          : 0
    Format                      : MPEG-4 Visual
    Format profile              : Advanced Simple@L5
    Format settings, BVOP       : 1
    Format settings, QPel       : No
    Format settings, GMC        : No warppoints
    Format settings, Matrix     : Custom
    Codec ID                    : XVID
    Codec ID/Hint               : XviD
    Duration                    : 1 h 44 min
    Bit rate                    : 861 kb/s
    Width                       : 688 pixels
    Height                      : 288 pixels
    Display aspect ratio        : 2.40:1
    Frame rate                  : 24.000 FPS
    Color space                 : YUV
    Chroma subsampling          : 4:2:0
    Bit depth                   : 8 bits
    Scan type                   : Progressive
    Compression mode            : Lossy
    Bits/(Pixel*Frame)          : 0.181
    Stream size                 : 644 MiB (86%)
    Writing library             : XviD 73

    Audio
    ID                          : 1
    Format                      : MPEG Audio
    Format version              : Version 1
    Format profile              : Layer 3
    Codec ID                    : 55
    Codec ID/Hint               : MP3
    Duration                    : 1 h 44 min
    Bit rate mode               : Constant
    Bit rate                    : 128 kb/s
    Channel(s)                  : 2 channels
    Sampling rate               : 48.0 kHz
    Compression mode            : Lossy
    Stream size                 : 95.7 MiB (13%)
    Alignment                   : Aligned on interleaves
    Interleave, duration        : 42  ms (1.00 video frame)
    Interleave, preload duratio : 504  ms
    Writing library             : LAME3.99r
    Encoding settings           : -m s -V 4 -q 2 -lowpass 17 -b 128Свернуть


    Инструкция по скачиванию
     1  Качаем uTorrent версии 2.0 и выше
     2  После установки, жмем выше под постером на ссылку Скачать [MediaGet] или Скачать .torrent
     3  Открываем скачанный файл через соответствующий клиент: MediaGet или uTorrent
     4  Ждем пока подключатся участники
     5  Качаем
    Комментарии о  Вечная жизнь Александра Христофорова | WEB-DLRip 
    Ближайшее в кино
    Вверх