• Игры для PS4
  • Игры для PS3
  • Игры для XBOX360
  • Игры для PC
  • Игры для PS2
  • Игры для PSP
  • Для телефонов
  • Музыка
  • Книги / Журналы
  • Обои
  • Опрос
    Откуда Вы о нас узнали?
      0
    • От знакомых2,1,false,300,full
    • Из социальных сетей2,2,false,300,full
    • Из поисковых систем2,3,false,300,full
    • Другое2,4,false,300,full
    Статистика
    Всего онлайн -
    Гостей -
    Пользователей -
    Короли трекера
    Благодарности () Закрыть
    Информация о фильме
    Название: Рождественские хроники
    Оригинальное название: The Christmas Chronicles
    Год выхода: 2018
    Жанр: фэнтези, комедия, приключения, семейный
    Режиссер: Клэй Кэйтис
    В ролях: Курт Рассел, Кимберли Уильямс-Пэйсли, Оливер Хадсон, Джуда Льюис, Ламорн Моррис, Дэрби Кэмп, Лорен Коллинз, Джереми Рэймонд, Мартин Роуч, Kayla Lakhani, Джефф Теравайнен, Ишан Моррис

    О фильме:
    В канун Рождества брат с сестрой - Кейт и Тедди Пирс - собираются заснять на видео появление Санты. Дерзкий замысел выливается в необыкновенное приключение, о котором дети не могли даже мечтать. Вместе с преданными эльфами и волшебными летающими оленями они помогают Санте спасти всеми любимый праздник.



    Страна: США
    Студия: 1492 Pictures, Madhouse Entertainment, Netflix
    Продолжительность: 01:44:27
    Перевод: Профессиональный (полное дублирование) | Пифагор

    Файл
    Формат: MKV
    Качество: WEB-DLRip 720p (исх. WEB-DLRip 1080p от New-Team)
    Видео: AVC, 1280x692 (1.85:1) at 24.000 fps, 3 159 kbps (0.149 bit/pixel)
    Аудио №1: AC3, 48.0 KHz, 5.1 ch, 384 kbps - русский
    Аудио №2: AC3, 48.0 KHz, 5.1 ch, 384 kbps - английский
    Субтитры: русские (Forced, Full), английские (SDH)

    Семпл

    MediaInfo
    General
    Unique ID                                : 231052236788504852065471898857824980207 (0xADD30ACAA93EA3AE810DC86353760CEF)
    Complete name                            : The.Christmas.Chronicles.2018.WEB-DLRip.720p.mkv
    Format                                   : Matroska
    Format version                           : Version 4
    File size                                : 2.87 GiB
    Duration                                 : 1 h 44 min
    Overall bit rate                         : 3 929 kb/s
    Movie name                               : The Christmas Chronicles
    Encoded date                             : UTC 2018-11-24 17:25:20
    Writing application                      : mkvmerge v8.5.0 ("Vanishing Act") 32bit
    Writing library                          : libebml v1.3.1 + libmatroska v1.4.2

    Video
    ID                                       : 1
    Format                                   : AVC
    Format/Info                              : Advanced Video Codec
    Format profile                           : High@L4.1
    Format settings                          : CABAC / 8 Ref Frames
    Format settings, CABAC                   : Yes
    Format settings, RefFrames               : 8 frames
    Codec ID                                 : V_MPEG4/ISO/AVC
    Duration                                 : 1 h 44 min
    Bit rate                                 : 3 159 kb/s
    Width                                    : 1 280 pixels
    Height                                   : 692 pixels
    Display aspect ratio                     : 1.85:1
    Frame rate mode                          : Variable
    Frame rate                               : 24.000 FPS
    Color space                              : YUV
    Chroma subsampling                       : 4:2:0
    Bit depth                                : 8 bits
    Scan type                                : Progressive
    Bits/(Pixel*Frame)                       : 0.149
    Stream size                              : 2.30 GiB (80%)
    Writing library                          : x264 core 148 r2638 7599210
    Encoding settings                        : cabac=1 / ref=8 / deblock=1:-1:-1 / analyse=0x3:0x133 / me=umh / subme=9 / psy=1 / psy_rd=1.00:0.15 / mixed_ref=1 / me_range=16 / chroma_me=1 / trellis=2 / 8x8dct=1 / cqm=0 / deadzone=21,11 / fast_pskip=1 / chroma_qp_offset=-3 / threads=3 / lookahead_threads=1 / sliced_threads=0 / nr=0 / decimate=1 / interlaced=0 / bluray_compat=0 / constrained_intra=0 / bframes=3 / b_pyramid=2 / b_adapt=2 / b_bias=0 / direct=3 / weightb=1 / open_gop=0 / weightp=2 / keyint=250 / keyint_min=24 / scenecut=40 / intra_refresh=0 / rc_lookahead=60 / rc=crf / mbtree=1 / crf=18.0 / qcomp=0.60 / qpmin=0 / qpmax=69 / qpstep=4 / ip_ratio=1.40 / aq=1:1.00
    Language                                 : English
    Default                                  : Yes
    Forced                                   : No

    Audio #1
    ID                                       : 2
    Format                                   : AC-3
    Format/Info                              : Audio Coding 3
    Commercial name                          : Dolby Digital
    Codec ID                                 : A_AC3
    Duration                                 : 1 h 44 min
    Bit rate mode                            : Constant
    Bit rate                                 : 384 kb/s
    Channel(s)                               : 6 channels
    Channel layout                           : L R C LFE Ls Rs
    Sampling rate                            : 48.0 kHz
    Frame rate                               : 31.250 FPS (1536 SPF)
    Bit depth                                : 16 bits
    Compression mode                         : Lossy
    Stream size                              : 287 MiB (10%)
    Title                                    : Russian
    Language                                 : Russian
    Service kind                             : Complete Main
    Default                                  : Yes
    Forced                                   : No

    Audio #2
    ID                                       : 3
    Format                                   : AC-3
    Format/Info                              : Audio Coding 3
    Commercial name                          : Dolby Digital
    Codec ID                                 : A_AC3
    Duration                                 : 1 h 44 min
    Bit rate mode                            : Constant
    Bit rate                                 : 384 kb/s
    Channel(s)                               : 6 channels
    Channel layout                           : L R C LFE Ls Rs
    Sampling rate                            : 48.0 kHz
    Frame rate                               : 31.250 FPS (1536 SPF)
    Bit depth                                : 16 bits
    Compression mode                         : Lossy
    Stream size                              : 287 MiB (10%)
    Title                                    : English
    Language                                 : English
    Service kind                             : Complete Main
    Default                                  : No
    Forced                                   : No

    Text #1
    ID                                       : 4
    Format                                   : UTF-8
    Codec ID                                 : S_TEXT/UTF8
    Codec ID/Info                            : UTF-8 Plain Text
    Duration                                 : 1 h 43 min
    Bit rate                                 : 5 b/s
    Count of elements                        : 102
    Stream size                              : 4.22 KiB (0%)
    Title                                    : Russian [Forced]
    Language                                 : Russian
    Default                                  : Yes
    Forced                                   : No

    Text #2
    ID                                       : 5
    Format                                   : UTF-8
    Codec ID                                 : S_TEXT/UTF8
    Codec ID/Info                            : UTF-8 Plain Text
    Duration                                 : 1 h 43 min
    Bit rate                                 : 84 b/s
    Count of elements                        : 1500
    Stream size                              : 63.5 KiB (0%)
    Title                                    : Russian [Full]
    Language                                 : Russian
    Default                                  : No
    Forced                                   : No

    Text #3
    ID                                       : 6
    Format                                   : UTF-8
    Codec ID                                 : S_TEXT/UTF8
    Codec ID/Info                            : UTF-8 Plain Text
    Duration                                 : 1 h 40 min
    Bit rate                                 : 81 b/s
    Count of elements                        : 1908
    Stream size                              : 60.3 KiB (0%)
    Title                                    : English [SDH]
    Language                                 : English
    Default                                  : No
    Forced                                   : NoСвернуть


    Скриншоты
    [screen]http://img14.lostpic.net/2018/12/01/baf06b4e50d297d11047fe2560afb3e9.png[/screen][screen]http://img14.lostpic.net/2018/12/01/25bdbbd04596e133f57bf97dcb83c454.png[/screen][screen]http://img14.lostpic.net/2018/12/01/dc341ceb54539bc0db832431b847f4ff.png[/screen][screen]http://img14.lostpic.net/2018/12/01/3360f4c710a42ecb73d43ec1f7ff5fd1.png[/screen][screen]http://img14.lostpic.net/2018/12/01/96ac992b9c2a1840b18bcd51cb3abd68.png[/screen][screen]http://img14.lostpic.net/2018/12/01/9df809dd0f2b7fdd1514bda327d368a8.png[/screen][screen]http://img14.lostpic.net/2018/12/01/29a26505be1890604be35cdec4506529.png[/screen][screen]http://img14.lostpic.net/2018/12/01/ec900249c56d5ca353e0edad58c55007.png[/screen]Свернуть
    Инструкция по скачиванию
     1  Качаем uTorrent версии 2.0 и выше
     2  После установки, жмем выше под постером на ссылку Скачать [MediaGet] или Скачать .torrent
     3  Открываем скачанный файл через соответствующий клиент: MediaGet или uTorrent
     4  Ждем пока подключатся участники
     5  Качаем
    Комментарии о  Рождественские хроники / The Christmas Chronicles | WEB-DLRip 720p 
    Ближайшее в кино
    Вверх