• Игры для PS4
  • Игры для PS3
  • Игры для XBOX360
  • Игры для PC
  • Игры для PS2
  • Игры для PSP
  • Для телефонов
  • Музыка
  • Книги / Журналы
  • Обои
  • Опрос
    Удобен ли сайт в использовании?
      0
    • Очень удобен, все понятно1,1,false,300,full
    • Удобен1,2,false,300,full
    • Средне1,3,false,300,full
    • Неудобен, трудно ориентироваться1,4,false,300,full
    • Совсем неудобен1,5,false,300,full
    Статистика
    Всего онлайн -
    Гостей -
    Пользователей -
    Короли трекера
    Благодарности () Закрыть
    Информация о фильме
    Название: Убойная вечеринка
    Оригинальное название: Killer Party
    Год выпуска: 1986
    Выпущено: США, Marquis, Polar Entertainment Corporation, Telecom Entertainment Inc.
    Жанр:  Ужасы, комедия
    Режиссер: Уильям Фрюит
    В ролях: Мартин Хьюит, Ральф Сеймур, Илэйн Уилкс, Пол Бартел (I), Шерри Уиллис-Бурч, Алисия Флир, Вуди Браун, Джоэнна Джонсон, Терри Хоукс, Дебора Хэнкок

    О фильме: Первое апреля — праздник весёлый. Но только не для парня, который много лет назад погиб во время празднования соответствующей вечеринки. Впрочем, погиб ли он на самом деле? В этом предстоит разобраться студенческой компании, на День дурака оказавшейся в заброшенном здании.

    Продолжительность: 01:31:45
    Перевод: Авторский
    Субтитры: Нет
    Навигация по главам: Есть

    Файл
    Качество: WEB-DL 1080p
    Видео: MPEG-4 AVC, 14,1 Мбит/сек, 1920x1080, 23,976 кадра/сек
    Аудио #1: AC3, 2 ch, 192 Кбит/сек | Русский, авторский (одноголосый закадровый) Андрей Дольский
    Аудио #2: AC3, 2 ch, 192 Кбит/сек | Английский, оригинал



    Скриншоты
    [screen]http://img10.lostpic.net/2018/11/30/5427ddfb7e18fcba652d4c11f9e8948f.png[/screen][screen]http://img10.lostpic.net/2018/11/30/d7362dcb584dbe326702b205677c6d87.png[/screen][screen]http://img10.lostpic.net/2018/11/30/cab14149220521a3c4f5b6954c92cdd8.png[/screen][screen]http://img10.lostpic.net/2018/11/30/9942c01a1f7de4f99816f4adaf77ef3b.png[/screen][screen]http://img10.lostpic.net/2018/11/30/3bcf057ea2ce19c4ad822dd8c5a55452.png[/screen][screen]http://img10.lostpic.net/2018/11/30/d6e27e28101e26b388ba6b0ff9c01ef4.png[/screen][screen]http://img10.lostpic.net/2018/11/30/d6e27e28101e26b388ba6b0ff9c01ef4.png[/screen][screen]http://img10.lostpic.net/2018/11/30/d496901b2cc9089df88eeb039cb3f696.png[/screen]Свернуть


    Инфо-файл
    Общее
    Уникальный идентификатор                 : 253143756974209549120975574896913237692 (0xBE71B6D4718D6D279E8B18A6334D46BC)
    Полное имя                               : Убойная.вечеринка.1986.WEB-DL.1080p.mkv
    Формат                                   : Matroska
    Версия формата                           : Version 2
    Размер файла                             : 9,45 Гбайт
    Продолжительность                        : 1 ч. 31 м.
    Режим общего битрейта                    : Переменный
    Общий поток                              : 14,7 Мбит/сек
    Дата кодирования                         : UTC 2018-11-28 13:33:56
    Программа кодирования                    : mkvmerge v5.8.0 ("No Sleep / Pillow") built on Sep  2 2012 15:37:04
    Библиотека кодирования                   : libebml v1.2.3 + libmatroska v1.3.0

    Видео
    Идентификатор                            : 1
    Формат                                   : AVC
    Формат/Информация                        : Advanced Video Codec
    Профиль формата                          : High@L4
    Настройки формата                        : CABAC / 4 Ref Frames
    Параметр CABAC формата                   : Да
    Параметр RefFrames формата               : 4 кадра
    Идентификатор кодека                     : V_MPEG4/ISO/AVC
    Продолжительность                        : 1 ч. 31 м.
    Вид битрейта                             : Переменный
    Битрейт                                  : 14,1 Мбит/сек
    Максимальный битрейт                     : 15,0 Мбит/сек
    Ширина                                   : 1920 пикселей
    Высота                                   : 1080 пикселей
    Соотношение сторон                       : 16:9
    Режим частоты кадров                     : Постоянный
    Частота кадров                           : 23,976 (24000/1001) кадра/сек
    Цветовое пространство                    : YUV
    Субдискретизация насыщенности            : 4:2:0
    Битовая глубина                          : 8 бит
    Тип развёртки                            : Прогрессивная
    Бит/(Пиксели*Кадры)                      : 0.283
    Размер потока                            : 9,01 Гбайт (95%)
    Библиотека кодирования                   : x264 core 148 r2623 d5b2374
    Настройки программы                      : cabac=1 / ref=4 / deblock=1:-1:-1 / analyse=0x3:0x133 / me=umh / subme=9 / psy=1 / psy_rd=1.00:0.15 / mixed_ref=1 / me_range=24 / chroma_me=1 / trellis=2 / 8x8dct=1 / cqm=0 / deadzone=21,11 / fast_pskip=1 / chroma_qp_offset=-3 / threads=34 / lookahead_threads=5 / sliced_threads=0 / nr=150 / decimate=1 / interlaced=0 / bluray_compat=0 / constrained_intra=0 / bframes=8 / b_pyramid=2 / b_adapt=2 / b_bias=0 / direct=3 / weightb=1 / open_gop=0 / weightp=2 / keyint=120 / keyint_min=61 / scenecut=0 / intra_refresh=0 / rc_lookahead=120 / rc=crf / mbtree=1 / crf=18.0 / qcomp=0.60 / qpmin=0 / qpmax=69 / qpstep=4 / vbv_maxrate=15000 / vbv_bufsize=31250 / crf_max=0.0 / nal_hrd=vbr / filler=0 / ip_ratio=1.40 / aq=3:1.00
    Язык                                     : English
    По умолчанию                             : Да
    Принудительно                            : Нет
    Цветовой диапазон                        : Limited
    Основные цвета                           : BT.709
    Характеристики трансфера                 : BT.709
    Коэффициенты матрицы                     : BT.709

    Аудио #1
    Идентификатор                            : 2
    Формат                                   : AC-3
    Формат/Информация                        : Audio Coding 3
    Идентификатор кодека                     : A_AC3
    Продолжительность                        : 1 ч. 31 м.
    Вид битрейта                             : Постоянный
    Битрейт                                  : 192 Кбит/сек
    Каналы                                   : 2 канала
    Расположение каналов                     : Front: L R
    Частота                                  : 48,0 КГц
    Частота кадров                           : 31,250 кадров/сек (1536 SPF)
    Битовая глубина                          : 16 бит
    Метод сжатия                             : С потерями
    Задержка видео                           : -83 мс.
    Размер потока                            : 126 Мбайт (1%)
    Заголовок                                : AVO | А. Дольский
    Язык                                     : Russian
    По умолчанию                             : Да
    Принудительно                            : Нет

    Аудио #2
    Идентификатор                            : 3
    Формат                                   : AC-3
    Формат/Информация                        : Audio Coding 3
    Идентификатор кодека                     : A_AC3
    Продолжительность                        : 1 ч. 31 м.
    Вид битрейта                             : Постоянный
    Битрейт                                  : 192 Кбит/сек
    Каналы                                   : 2 канала
    Расположение каналов                     : Front: L R
    Частота                                  : 48,0 КГц
    Частота кадров                           : 31,250 кадров/сек (1536 SPF)
    Битовая глубина                          : 16 бит
    Метод сжатия                             : С потерями
    Задержка видео                           : -83 мс.
    Размер потока                            : 126 Мбайт (1%)
    Заголовок                                : Original
    Язык                                     : English
    По умолчанию                             : Нет
    Принудительно                            : Нет

    Меню
    00:00:00.000                             : en:Chapter 01
    00:04:27.339                             : en:Chapter 02
    00:06:37.469                             : en:Chapter 03
    00:09:09.621                             : en:Chapter 04
    00:13:15.867                             : en:Chapter 05
    00:18:01.152                             : en:Chapter 06
    00:22:18.409                             : en:Chapter 07
    00:25:14.084                             : en:Chapter 08
    00:27:57.748                             : en:Chapter 09
    00:31:21.151                             : en:Chapter 10
    00:35:56.376                             : en:Chapter 11
    00:39:16.476                             : en:Chapter 12
    00:41:42.572                             : en:Chapter 13
    00:46:17.847                             : en:Chapter 14
    00:49:56.065                             : en:Chapter 15
    00:53:05.954                             : en:Chapter 16
    00:57:59.548                             : en:Chapter 17
    01:04:12.921                             : en:Chapter 18
    01:08:07.155                             : en:Chapter 19
    01:11:40.368                             : en:Chapter 20
    01:14:55.563                             : en:Chapter 21
    01:17:15.703                             : en:Chapter 22
    01:19:18.826                             : en:Chapter 23
    01:22:55.042                             : en:Chapter 24
    01:26:14.241                             : en:Chapter 25
    01:29:54.461                             : en:Chapter 26Свернуть


    Дополнительная информация
    • Исходник видео WEB-DL Amazon.Свернуть


    Сборка:[img]http://i1.imageban.ru/out/2018/02/13/db08a675822da337df05f97bda2ce544.gif[/img] [img]http://i3.imageban.ru/out/2018/07/23/276881ff853d23c7f0c2335cfae4252f.png[/img]
    Похожие раздачи Искать похожие
    Инструкция по скачиванию
     1  Качаем uTorrent версии 2.0 и выше
     2  После установки, жмем выше под постером на ссылку Скачать [MediaGet] или Скачать .torrent
     3  Открываем скачанный файл через соответствующий клиент: MediaGet или uTorrent
     4  Ждем пока подключатся участники
     5  Качаем
    Комментарии о  Убойная вечеринка / Killer Party | WEB-DL 1080p 
    Ближайшее в кино
    Вверх