• Игры для PS4
  • Игры для PS3
  • Игры для XBOX360
  • Игры для PC
  • Игры для PS2
  • Игры для PSP
  • Для телефонов
  • Музыка
  • Книги / Журналы
  • Обои
  • Опрос
    Удобен ли сайт в использовании?
      0
    • Очень удобен, все понятно1,1,false,300,full
    • Удобен1,2,false,300,full
    • Средне1,3,false,300,full
    • Неудобен, трудно ориентироваться1,4,false,300,full
    • Совсем неудобен1,5,false,300,full
    Статистика
    Всего онлайн -
    Гостей -
    Пользователей -
    Короли трекера
    Благодарности () Закрыть
    Информация о фильме
    Название: Вий
    Год выхода: 1967
    Жанр:  ужасы, фэнтези, драма
    Режиссер: Георгий Кропачев, Константин Ершов

    В ролях: Леонид Куравлёв, Наталья Варлей, Алексей Глазырин, Николай Кутузов, Вадим Захарченко, Петр Вескляров, Владимир Сальников, Дмитрий Капка, Степан Шкурат, Георгий Сочевко

    О фильме:
    Студент-философ Хома Брут должен провести несколько ночей у гроба умершей панночки в старой церквушке в далекой деревне. Сможет ли он побороть свой страх, или ему придется столкнуться с нечистой силой?



    Страна: СССР
    Студия: Луч, Мосфильм
    Продолжительность: 01:16:51
    Перевод: Оригинальный

    Файл
    Формат: MKV
    Качество: BDRip-AVC [Blu-Ray 1080p | JPN Transfer]
    Видео: x264, 720x532, ~1263 kbps, 23.976 fps
    Аудио: AAC, 2 ch, ~96 Кбит/сек

    ***Релиз от: -=DoMiNo=-

    Дополнительная информация
    » Фильм снят по одноименной повести Николая Гоголя.
    » В фильме задействованы 50 ворон (пойманых в районе студии) и 9 дрессированных черных кошек.
    » Александра Завьялова изначально утвержденная на роль Панночки, сразу после начала съемок тяжело заболела. В итоге будущий муж актрисы, режиссер Резо Эсадзе требовал, чтоб она отказалась от роли.
    » Идея экранизации «Вия» принадлежит известному советскому режиссёру, на тот момент директору кинокомпании Мосфильм, Ивану Пырьеву. Лишь по причине острой нехватки времени он предложил снять картину двум учащимся Высших режиссерских курсов Союза кинематографистов СССР Георгию Кропачеву и Константину Ершову.
    » Съемки фильм производились в Богородчанском районе Ивано-Франковской области (ныне Украина). Однако отснятый на натуре материал разочаровал руководство Мосфильма, оказавшись «слишком реалистическим». Так к работе было решено привлечь известного режиссёра кино-сказочника Александра Птушко. В результате, много материала отснятого Ершовым и Кропачевым было вырезано, ряд идей так и остались невоплощёнными. Изменён был и облик главного чудовища фильма — Вия.
    » Первоначально на роль Хомы Брута планировался Михаил Кокшенов.
    » «Полет» Ведьмы на Хоме был снят в павильоне. Шест, замаскированный под метлу с горизонтальной планкой, на которой сидел Николай Кутузов, крепился на небольшой высоте. Исполнитель роли Хомы Леонид Куравлёв повисал также на этой планке и перебирал в воздухе ногами, имитируя бег.
    » В реквизите фильма было заготовлено три гроба Панночки. Один настоящий, для съемок лежащей в нем Натальи Варлей. Два других — для сцен полетов по церкви: небольшой и закрытый и открытый, со специальной стойкой, снабженной поясом монтажных рабочих удерживавшим актрису от падения, закрепленный в подвешенном состоянии на шести металлических тросах.
    » Во время съемок полета, Наталья Варлей однажды выпала из гроба. Только реакция Леонида Куравлёва, успевшего подхватить актрису, спасла ее от травм. Тем не менее этот случай породил множественные слухи о смерти Варлей.
    » По задумке Георгия Кропачева сам Вий должен был выглядеть более антропоморфно — гигантским немощным стариком, которого поддерживали всевозможные инфернальные существа.
    » Петух, кукарекающий в фильме ранее был задействован Птушко при съемках фильма «Сказка о царе Салтане».
    » Костюм Вия был очень тяжелый и никто из актеров не мог в нем нормально двигаться, поэтому эту роль пришлось сыграть специально приглашенному штангисту.
    » Когда во время одной из финальных сцен героиня Натальи Варлей трясется от злости, актриса стоит на специальной вибрирующей платформе.Свернуть


    M/I
    General
    Unique ID                   : 202640058923676416152578344456690226443 (0x98730E4510AC47A2A38E0F355E36550B)
    Complete name               : Вий_(1967)_BDRIP-AVC_[-=DoMiNo=-].mkv
    Format                      : Matroska
    Format version              : Version 4
    File size                   : 746 MiB
    Duration                    : 1 h 16 min
    Overall bit rate            : 1 356 kb/s
    Movie name                  : Вий
    Encoded date                : UTC 2018-12-01 18:48:52
    Writing application         : mkvmerge v28.2.0 ("The Awakening") 64-bit
    Writing library             : libebml v1.3.6 + libmatroska v1.4.9
    Attachments                 : poster.jpg

    Video
    ID                          : 1
    Format                      : AVC
    Format/Info                 : Advanced Video Codec
    Format profile              : High@L4.1
    Format settings             : CABAC / 16 Ref Frames
    Format settings, CABAC      : Yes
    Format settings, ReFrames   : 16 frames
    Codec ID                    : V_MPEG4/ISO/AVC
    Duration                    : 1 h 16 min
    Bit rate                    : 1 263 kb/s
    Width                       : 720 pixels
    Height                      : 532 pixels
    Display aspect ratio        : 4:3
    Frame rate mode             : Constant
    Frame rate                  : 23.976 (24000/1001) FPS
    Color space                 : YUV
    Chroma subsampling          : 4:2:0
    Bit depth                   : 8 bits
    Scan type                   : Progressive
    Bits/(Pixel*Frame)          : 0.138
    Stream size                 : 692 MiB (93%)
    Title                       : RIP_BY_-=DoMiNo=-
    Writing library             : x264 core 157 r2901M 7d0ff22
    Encoding settings           : cabac=1 / ref=16 / deblock=1:-3:-3 / analyse=0x3:0x133 / me=umh / subme=11 / psy=1 / psy_rd=1.08:0.20 / mixed_ref=1 / me_range=48 / chroma_me=1 / trellis=2 / 8x8dct=1 / cqm=0 / deadzone=21,11 / fast_pskip=0 / chroma_qp_offset=-3 / threads=6 / lookahead_threads=1 / sliced_threads=0 / nr=0 / decimate=1 / interlaced=0 / bluray_compat=0 / constrained_intra=0 / bframes=16 / b_pyramid=2 / b_adapt=2 / b_bias=0 / direct=3 / weightb=1 / open_gop=0 / weightp=2 / keyint=250 / keyint_min=24 / scenecut=40 / intra_refresh=0 / rc_lookahead=40 / rc=2pass / mbtree=1 / bitrate=1263 / ratetol=1.0 / qcomp=0.80 / qpmin=0 / qpmax=69 / qpstep=4 / cplxblur=20.0 / qblur=0.5 / vbv_maxrate=50000 / vbv_bufsize=62500 / nal_hrd=none / filler=0 / ip_ratio=1.40 / aq=1:0.65
    Language                    : Russian
    Default                     : Yes
    Forced                      : No
    Color range                 : Limited
    Color primaries             : BT.709
    Transfer characteristics    : BT.709
    Matrix coefficients         : BT.709

    Audio
    ID                          : 2
    Format                      : AAC LC SBR
    Format/Info                 : Advanced Audio Codec Low Complexity with Spectral Band Replication
    Commercial name             : HE-AAC
    Format settings             : Implicit
    Codec ID                    : A_AAC-2
    Duration                    : 1 h 16 min
    Bit rate                    : 96.0 kb/s
    Channel(s)                  : 2 channels
    Channel layout              : L R
    Sampling rate               : 48.0 kHz
    Frame rate                  : 23.438 FPS (2048 SPF)
    Compression mode            : Lossy
    Stream size                 : 52.8 MiB (7%)
    Title                       : RUS
    Language                    : Russian
    Default                     : Yes
    Forced                      : No

    Menu
    00:00:00.000                : :Глава 1
    00:10:03.978                : :Глава 2
    00:21:28.996                : :Глава 3
    00:26:57.365                : :Глава 4
    00:37:36.254                : :Глава 5
    00:45:53.083                : :Глава 6
    00:55:23.403                : :Глава 7
    01:05:14.827                : :Глава 8
    01:16:49.563                : :Глава 9Свернуть


    Скриншоты
    [screen]http://img14.lostpic.net/2018/12/01/068da35ce5e101bf8bb99771675ee362.png[/screen][screen]http://img14.lostpic.net/2018/12/01/d20cc2ddc7852db502f4180de7f6e406.png[/screen][screen]http://img14.lostpic.net/2018/12/01/46825474987961c8cb09cda7c7404da1.png[/screen][screen]http://img14.lostpic.net/2018/12/01/26750f0c1fc5eb977f98ab82cfd9ef43.png[/screen][screen]http://img14.lostpic.net/2018/12/01/ef5c686ec4aa72c8a6c2faa5ff8fd167.png[/screen][screen]http://img14.lostpic.net/2018/12/01/7a6900d4861e802c37ce09783a79e290.png[/screen][screen]http://img14.lostpic.net/2018/12/01/aec39b933822c79e98a06bd43578036b.png[/screen][screen]http://img14.lostpic.net/2018/12/01/70d934a523bab34bbeb2a9b16c6fc32b.png[/screen][screen]http://img14.lostpic.net/2018/12/01/d31f6a3dc889ed824eb07aab4764fa2d.png[/screen][screen]http://img14.lostpic.net/2018/12/01/e983a2ec29bc085a5f7c995931c1c1b8.png[/screen][screen]http://img14.lostpic.net/2018/12/01/5082a8166679810e86de3f056de9c70c.png[/screen][screen]http://img14.lostpic.net/2018/12/01/2d2986ddf79a115819a403fd9e0bbcd2.png[/screen][screen]http://img14.lostpic.net/2018/12/01/46825474987961c8cb09cda7c7404da1.png[/screen][screen]http://img14.lostpic.net/2018/12/01/501c8823f6bd8c81adfd9bc2be38f6cd.png[/screen][screen]http://img14.lostpic.net/2018/12/01/ddcfbd6c81c37fb3600f782176e22647.png[/screen]Свернуть
    Похожие раздачи Искать похожие
    Инструкция по скачиванию
     1  Качаем uTorrent версии 2.0 и выше
     2  После установки, жмем выше под постером на ссылку Скачать [MediaGet] или Скачать .torrent
     3  Открываем скачанный файл через соответствующий клиент: MediaGet или uTorrent
     4  Ждем пока подключатся участники
     5  Качаем
    Комментарии о  Вий | BDRip-AVC 
    Ближайшее в кино
    Вверх