• Игры для PS4
  • Игры для PS3
  • Игры для XBOX360
  • Игры для PC
  • Игры для PS2
  • Игры для PSP
  • Для телефонов
  • Музыка
  • Книги / Журналы
  • Обои
  • Опрос
    Удобен ли сайт в использовании?
      0
    • Очень удобен, все понятно1,1,false,300,full
    • Удобен1,2,false,300,full
    • Средне1,3,false,300,full
    • Неудобен, трудно ориентироваться1,4,false,300,full
    • Совсем неудобен1,5,false,300,full
    Статистика
    Всего онлайн -
    Гостей -
    Пользователей -
    Короли трекера
    Благодарности () Закрыть
    Информация о фильме
    Название: Мегрэ расставляет сети
    Оригинальное название: Maigret Sets a Trap
    Год выхода: 2016
    Жанр: Триллер, драма, криминал, детектив
    Режиссер: Эшли Пирс
    В ролях: Роуэн Аткинсон, Лео Стаар, Шон Дингуолл, Александр Кэмпбелл, Бет Кук, Колин Мейс, Хью Саймон, Лео Хаттон, Иэн Бартоломью

    О фильме:
    В Париже происходят убийства молодых женщин. Почерк загадочного убийцы повторяется от преступления к преступлению. Комиссар Мегрэ готов на любой риск, если это поможет поймать маньяка. После очередного убийства, Мегрэ решает заманить преступника в ловушку...



    Страна: Великобритания
    Студия: Ealing Studios, Maigret Productions
    Продолжительность: 01:26:22
    Перевод: Профессиональный многоголосый | Первый канал

    Файл
    Кодек: x.264
    Качество: BDRip 1080p | Maigret.Sets.A.Trap.2016.1080p.BluRay.x264-SHORTBREHD
    Видео: MPEG-4 AVC, 1920x1080, 9358 Kбит/с, 25.000 кадр/с
    Аудио #1: Русский ( АС3, 2ch, 192 Кбит/с, 48.0 KHz) Профессиональный (многоголосый, закадровый) Первый канал
    Аудио #2: Английский ( DTS, 6ch, 1510 Кбит/с, 48.0 KHz)
    Субтитры: русские, английские
    MediaInfo
    Источник: Maigret.Sets.A.Trap.2016.1080p.BluRay.x264-SHORTBREHD
    General
    Unique ID                      : 231603200756197524032920243255163064964 (0xAE3D27699C214F71BF9221900BF19284)
    Complete name                  : Maigret.Sets.A.Trap.2016.BDRip.1080p.mkv
    Format                         : Matroska
    Format version                 : Version 4
    File size                      : 6.67 GiB
    Duration                       : 1 h 26 min
    Overall bit rate               : 11.1 Mb/s
    Encoded date                   : UTC 2018-12-01 00:34:42
    Writing application            : mkvmerge v7.1.0 ("Good Love") 64bit built on Jul 27 2014 13:06:55
    Writing library                : libebml v1.3.0 + libmatroska v1.4.1

    Video
    ID                             : 1
    Format                         : AVC
    Format/Info                    : Advanced Video Codec
    Format profile                 : High@L4.1
    Format settings                : CABAC / 4 Ref Frames
    Format settings, CABAC         : Yes
    Format settings, ReFrames      : 4 frames
    Codec ID                       : V_MPEG4/ISO/AVC
    Duration                       : 1 h 26 min
    Bit rate                       : 9 358 kb/s
    Width                          : 1 920 pixels
    Height                         : 1 080 pixels
    Display aspect ratio           : 16:9
    Frame rate mode                : Constant
    Frame rate                     : 25.000 FPS
    Color space                    : YUV
    Chroma subsampling             : 4:2:0
    Bit depth                      : 8 bits
    Scan type                      : Progressive
    Bits/(Pixel*Frame)             : 0.181
    Stream size                    : 5.65 GiB (85%)
    Writing library                : x264 core 148 r2744 b97ae06
    Encoding settings              : cabac=1 / ref=4 / deblock=1:-3:-3 / analyse=0x3:0x113 / me=umh / subme=8 / psy=1 / psy_rd=1.00:0.00 / mixed_ref=1 / me_range=16 / chroma_me=1 / trellis=1 / 8x8dct=1 / cqm=0 / deadzone=21,11 / fast_pskip=1 / chroma_qp_offset=-2 / threads=6 / lookahead_threads=1 / sliced_threads=0 / nr=0 / decimate=1 / interlaced=0 / bluray_compat=0 / constrained_intra=0 / bframes=3 / b_pyramid=2 / b_adapt=2 / b_bias=0 / direct=3 / weightb=1 / open_gop=0 / weightp=2 / keyint=250 / keyint_min=25 / scenecut=40 / intra_refresh=0 / rc_lookahead=50 / rc=2pass / mbtree=1 / bitrate=9358 / ratetol=1.0 / qcomp=0.60 / qpmin=0 / qpmax=69 / qpstep=4 / cplxblur=20.0 / qblur=0.5 / ip_ratio=1.40 / aq=3:0.80
    Language                       : English
    Default                        : Yes
    Forced                         : No

    Audio #1
    ID                             : 2
    Format                         : AC-3
    Format/Info                    : Audio Coding 3
    Commercial name                : Dolby Digital
    Codec ID                       : A_AC3
    Duration                       : 1 h 26 min
    Bit rate mode                  : Constant
    Bit rate                       : 192 kb/s
    Channel(s)                     : 2 channels
    Channel layout                 : L R
    Sampling rate                  : 48.0 kHz
    Frame rate                     : 31.250 FPS (1536 SPF)
    Bit depth                      : 16 bits
    Compression mode               : Lossy
    Stream size                    : 119 MiB (2%)
    Language                       : Russian
    Service kind                   : Complete Main
    Default                        : Yes
    Forced                         : No

    Audio #2
    ID                             : 3
    Format                         : DTS
    Format/Info                    : Digital Theater Systems
    Codec ID                       : A_DTS
    Duration                       : 1 h 26 min
    Bit rate mode                  : Constant
    Bit rate                       : 1 509 kb/s
    Channel(s)                     : 6 channels
    Channel layout                 : C L R Ls Rs LFE
    Sampling rate                  : 48.0 kHz
    Frame rate                     : 93.750 FPS (512 SPF)
    Bit depth                      : 24 bits
    Compression mode               : Lossy
    Stream size                    : 932 MiB (14%)
    Language                       : English
    Default                        : No
    Forced                         : No

    Text #1
    ID                             : 4
    Format                         : UTF-8
    Codec ID                       : S_TEXT/UTF8
    Codec ID/Info                  : UTF-8 Plain Text
    Duration                       : 1 h 23 min
    Bit rate                       : 84 b/s
    Count of elements              : 852
    Stream size                    : 51.7 KiB (0%)
    Language                       : Russian
    Default                        : No
    Forced                         : No

    Text #2
    ID                             : 5
    Format                         : UTF-8
    Codec ID                       : S_TEXT/UTF8
    Codec ID/Info                  : UTF-8 Plain Text
    Duration                       : 1 h 23 min
    Bit rate                       : 52 b/s
    Count of elements              : 867
    Stream size                    : 32.2 KiB (0%)
    Language                       : English
    Default                        : No
    Forced                         : No

    Menu
    00:00:00.000                   : en:00:00:00.000
    00:09:44.680                   : en:00:09:44.680
    00:19:16.680                   : en:00:19:16.680
    00:29:28.240                   : en:00:29:28.240
    00:39:54.960                   : en:00:39:54.960
    00:51:07.320                   : en:00:51:07.320
    00:59:43.760                   : en:00:59:43.760
    01:08:19.880                   : en:01:08:19.880
    01:16:07.880                   : en:01:16:07.880
    Свернуть


    Инструкция по скачиванию
     1  Качаем uTorrent версии 2.0 и выше
     2  После установки, жмем выше под постером на ссылку Скачать [MediaGet] или Скачать .torrent
     3  Открываем скачанный файл через соответствующий клиент: MediaGet или uTorrent
     4  Ждем пока подключатся участники
     5  Качаем
    Комментарии о  Мегрэ расставляет сети / Maigret Sets a Trap | BDRip 1080p 
    Ближайшее в кино
    Вверх