• Игры для PS4
  • Игры для PS3
  • Игры для XBOX360
  • Игры для PC
  • Игры для PS2
  • Игры для PSP
  • Для телефонов
  • Музыка
  • Книги / Журналы
  • Обои
  • Опрос
    Удобен ли сайт в использовании?
      0
    • Очень удобен, все понятно1,1,false,300,full
    • Удобен1,2,false,300,full
    • Средне1,3,false,300,full
    • Неудобен, трудно ориентироваться1,4,false,300,full
    • Совсем неудобен1,5,false,300,full
    Статистика
    Всего онлайн -
    Гостей -
    Пользователей -
    Короли трекера
    Благодарности () Закрыть
    Оригинальное название: Год культуры
    Год выпуска: 2018
    Жанр:  комедия
    Режиссер: Тито Калатозишвили
    В ролях: Фёдор Бондарчук, Мария Ахметзянова, Александр Лыков, Александр Яценко, Риналь Мухаметов, Ольга Медынич, Валерия Шкирандо, Александр Обласов, Мария Карпова, Александр Ильин, Иван Мартынов, Игорь Угольников, Виктория Верберг

    О фильме:
    Нерадивый чиновник Виктор Сычев отправляется «в ссылку» на кафедру словесности в региональный вуз. Там ему придется сменить уютное кожаное кресло и просторный кабинет на шаткую табуретку и пыльную аудиторию. Что может быть лучше для служителя Министерства образования, чем полное погружение в это самое образование? И чем может обернуться для высокопоставленного чиновника халатное отношение к собственным обязанностям?



    Страна: Россия
    Студия: Comedy Club Production, Art Pictures Vision
    Продолжительность: 5 x ~ 00:45:00
    Перевод: Не требуется
    Субтитры: нет

    Файл
    Формат: avi
    Качество: WEBRip
    Видео: XviD build 73, 720x400 (16:9), 25.000 fps, ~ 1550 Kbps (~ 0.215 bit/pixel)
    Звук: 48.0 kHz, AC3, 2/0 ch, 192 kbps

    MediaInfo
    General
    Complete name               : D:RazdachiGod.Kuljtury.2018.XviD.WEBRip.GeneralFilmGod.Kuljtury.e01.avi
    Format                      : AVI
    Format/Info                 : Audio Video Interleave
    File size                   : 557 MiB
    Duration                    : 44 min 24 s
    Overall bit rate            : 1 754 kb/s
    Writing application         : VirtualDubMod 1.5.10.3 | www.virtualdub-fr.org || (build 2550/release)
    Writing library             : VirtualDubMod build 2550/release

    Video
    ID                          : 0
    Format                      : MPEG-4 Visual
    Format profile              : Advanced Simple@L5
    Format settings, BVOP       : 1
    Format settings, QPel       : No
    Format settings, GMC        : No warppoints
    Format settings, Matrix     : Custom
    Codec ID                    : XVID
    Codec ID/Hint               : XviD
    Duration                    : 44 min 24 s
    Bit rate                    : 1 552 kb/s
    Width                       : 720 pixels
    Height                      : 400 pixels
    Display aspect ratio        : 16:9
    Frame rate                  : 25.000 FPS
    Color space                 : YUV
    Chroma subsampling          : 4:2:0
    Bit depth                   : 8 bits
    Scan type                   : Progressive
    Compression mode            : Lossy
    Bits/(Pixel*Frame)          : 0.216
    Stream size                 : 493 MiB (88%)
    Writing library             : XviD 73

    Audio
    ID                          : 1
    Format                      : AC-3
    Format/Info                 : Audio Coding 3
    Format settings, Endianness : Big
    Codec ID                    : 2000
    Duration                    : 44 min 24 s
    Bit rate mode               : Constant
    Bit rate                    : 192 kb/s
    Channel(s)                  : 2 channels
    Channel positions           : Front: L R
    Sampling rate               : 48.0 kHz
    Frame rate                  : 31.250 FPS (1536 SPF)
    Bit depth                   : 16 bits
    Compression mode            : Lossy
    Stream size                 : 61.0 MiB (11%)
    Alignment                   : Split accross interleaves
    Interleave, duration        : 40  ms (1.00 video frame)
    Interleave, preload duratio : 500  ms
    Service kind                : Complete MainСвернуть


    Инструкция по скачиванию
     1  Качаем uTorrent версии 2.0 и выше
     2  После установки, жмем выше под постером на ссылку Скачать [MediaGet] или Скачать .torrent
     3  Открываем скачанный файл через соответствующий клиент: MediaGet или uTorrent
     4  Ждем пока подключатся участники
     5  Качаем
    Комментарии о  Год культуры [Серии 01-05 из 20] | WEBRip 
    Ближайшее в кино
    Вверх