• Игры для PS4
  • Игры для PS3
  • Игры для XBOX360
  • Игры для PC
  • Игры для PS2
  • Игры для PSP
  • Для телефонов
  • Музыка
  • Книги / Журналы
  • Обои
  • Опрос
    Удобен ли сайт в использовании?
      0
    • Очень удобен, все понятно1,1,false,300,full
    • Удобен1,2,false,300,full
    • Средне1,3,false,300,full
    • Неудобен, трудно ориентироваться1,4,false,300,full
    • Совсем неудобен1,5,false,300,full
    Статистика
    Всего онлайн -
    Гостей -
    Пользователей -
    Короли трекера
    Благодарности () Закрыть
    Название: Ночь демонов
    Оригинальное название: Night of the Demons
    Год выхода: 1988
    Страна: США
    Студия: Blue Rider Pictures, Meridian Productions, Paragon Arts International
    Продолжительность: 01:29:44
    Жанр: ужасы, комедия

    Режиссер: Кевин Тенни
    В ролях: Билли Галло, Хэл Хэвинс, Амелия Кинкейд, Кэти Подвелл, Линни Куигли, Эллисон Баррон, Элвин Алексис, Харольд Эйер, Карен Эриксон, Лэнс Фентон, ...

    Перевод:
    - Авторский (одноголосый, закадровый) Яроцкий Михаил
    - Авторский (одноголосый, закадровый) Визгунов Сергей
    - Авторский (одноголосый, закадровый) Прямостанов Павел (со вставками Карповского)
    - Авторский (одноголосый, закадровый) Карповский Антон Сергеевич
    - Субтитры

    О фильме: Веселая девушка Анжела решает устроить вечеринку для своих друзей в старом доме под названием Hull House на праздник Дня всех святых. В процессе приятного времяпровождения они вызывают демона, который овладевает подростками одним за другим…



    Кодек: x264
    Качество: BDRip 1080p
    Видео: 1920x1036, 13000 kbps, 24 fps
    Аудио #1: AC-3, 6 ch, 640 kbps (Rus) - AVO Яроцкий Михаил (kyberpunk)
    Аудио #2: AC-3, 2 ch, 192 kbps (Rus) - AVO Визгунов Сергей
    Аудио #3: AC-3, 2 ch, 192 kbps (Rus) - AVO Прямостанов Павел
    Аудио #4: AC-3, 2 ch, 192 kbps (Rus) - AVO Карповский Антон Сергеевич
    Аудио #5: DTS, 6 ch, 1509 kbps (Eng)
    Субтитры: Русские, Английские
    Спасибо за исходник

    Дополнительная информация
    Перевод и озвучка Михаила Яроцкого доступны благодаря - Mednik
    Наложение голоса и постер - mihaildns

    Визгунов и Прямостанов со вставками Карповского

    Сравнения с моим старым рипом:

    [screen]https://b.radikal.ru/b30/1812/82/49c3a01c4318.jpg[/screen][screen]https://a.radikal.ru/a26/1812/67/2bdb605a3282.jpg[/screen]  
    [screen]https://a.radikal.ru/a27/1812/d0/f45545e67234.jpg[/screen][screen]https://d.radikal.ru/d36/1812/f9/d540e85ab6ce.jpg[/screen]  Свернуть


    MediaInfo

    x264 [info]: frame I:617   Avg QP:18.80  size:202734
    x264 [info]: frame P:24070 Avg QP:21.13  size:100904
    x264 [info]: frame B:104533 Avg QP:23.06  size: 59245
    x264 [info]: consecutive B-frames:  1.8%  1.1%  4.2%  3.6%  8.8% 66.9%  4.0%  1.5%  2.2%  1.8%  1.5%  1.1%  0.6%  0.5%  0.5%

    Общее
    Уникальный идентификатор : 220061256114170619254986604625898718395 (0xA58E419B3C9C5C08937811ADB08B44BB)
    Полное имя : Ночь демонов 1 R (Night of the Demons) 1988 BDRip 1080p.mkv
    Формат : Matroska
    Версия формата : Version 2
    Размер файла : 9,86 Гбайт
    Продолжительность : 1 ч. 29 м.
    Общий поток : 15,7 Мбит/сек
    Дата кодирования : UTC 2018-12-01 22:00:20
    Программа кодирования : mkvmerge v4.0.0 ("The Stars were mine") сборка от Jun 6 2010 16:18:42
    Библиотека кодирования : libebml v1.0.0 + libmatroska v1.0.0

    Видео
    Идентификатор : 1
    Формат : AVC
    Формат/Информация : Advanced Video Codec
    Профиль формата : High@L4.1
    Параметр CABAC формата : Да
    Параметр ReFrames формата : 4 кадра
    Идентификатор кодека : V_MPEG4/ISO/AVC
    Продолжительность : 1 ч. 29 м.
    Битрейт : 13,0 Мбит/сек
    Ширина : 1920 пикселей
    Высота : 1036 пикселей
    Соотношение сторон : 1,85:1
    Режим частоты кадров : Постоянный
    Частота кадров : 24,000 кадра/сек
    Цветовое пространство : YUV
    Субдискретизация насыщенности : 4:2:0
    Битовая глубина : 8 бит
    Тип развёртки : Прогрессивная
    Бит/(Пиксели*Кадры) : 0.272
    Размер потока : 7,95 Гбайт (81%)
    Библиотека кодирования : x264 core 146 r2538 121396c
    Настройки программы : cabac=1 / ref=4 / deblock=1:-2:-2 / analyse=0x3:0x133 / me=umh / subme=11 / psy=1 / psy_rd=1.00:0.00 / mixed_ref=1 / me_range=32 / chroma_me=1 / trellis=2 / 8x8dct=1 / cqm=0 / deadzone=21,11 / fast_pskip=0 / chroma_qp_offset=-2 / threads=12 / lookahead_threads=2 / sliced_threads=0 / nr=0 / decimate=0 / interlaced=0 / bluray_compat=0 / constrained_intra=0 / bframes=14 / b_pyramid=2 / b_adapt=2 / b_bias=0 / direct=3 / weightb=1 / open_gop=0 / weightp=2 / keyint=240 / keyint_min=24 / scenecut=40 / intra_refresh=0 / rc=2pass / mbtree=0 / bitrate=13000 / ratetol=1.0 / qcomp=0.60 / qpmin=0 / qpmax=69 / qpstep=4 / cplxblur=20.0 / qblur=0.5 / ip_ratio=1.40 / pb_ratio=1.30 / aq=2:0.80
    Язык : English
    Default : Нет
    Forced : Нет

    Аудио #1
    Идентификатор : 2
    Формат : AC-3
    Формат/Информация : Audio Coding 3
    Расширение режима : CM (complete main)
    Параметр Endianness формата : Big
    Идентификатор кодека : A_AC3
    Продолжительность : 1 ч. 29 м.
    Вид битрейта : Постоянный
    Битрейт : 640 Кбит/сек
    Каналы : 6 каналов
    Расположение каналов : Front: L C R, Side: L R, LFE
    Частота : 48,0 КГц
    Частота кадров : 31,250 кадров/сек (1536 spf)
    Метод сжатия : С потерями
    Размер потока : 411 Мбайт (4%)
    Заголовок : AVO Яроцкий Михаил (kyberpunk)
    Язык : Russian
    Default : Нет
    Forced : Нет

    Аудио #2
    Идентификатор : 3
    Формат : AC-3
    Формат/Информация : Audio Coding 3
    Расширение режима : CM (complete main)
    Параметр Endianness формата : Big
    Идентификатор кодека : A_AC3
    Продолжительность : 1 ч. 29 м.
    Вид битрейта : Постоянный
    Битрейт : 192 Кбит/сек
    Каналы : 2 канала
    Расположение каналов : Front: L R
    Частота : 48,0 КГц
    Частота кадров : 31,250 кадров/сек (1536 spf)
    Метод сжатия : С потерями
    Размер потока : 123 Мбайт (1%)
    Заголовок : AVO Визгунов Сергей (со вставками Карповского)
    Язык : Russian
    Default : Нет
    Forced : Нет

    Аудио #3
    Идентификатор : 4
    Формат : AC-3
    Формат/Информация : Audio Coding 3
    Расширение режима : CM (complete main)
    Параметр Endianness формата : Big
    Идентификатор кодека : A_AC3
    Продолжительность : 1 ч. 29 м.
    Вид битрейта : Постоянный
    Битрейт : 192 Кбит/сек
    Каналы : 2 канала
    Расположение каналов : Front: L R
    Частота : 48,0 КГц
    Частота кадров : 31,250 кадров/сек (1536 spf)
    Метод сжатия : С потерями
    Размер потока : 123 Мбайт (1%)
    Заголовок : AVO Прямостанов Павел (со вставками Карповского)
    Язык : Russian
    Default : Нет
    Forced : Нет

    Аудио #4
    Идентификатор : 5
    Формат : AC-3
    Формат/Информация : Audio Coding 3
    Расширение режима : CM (complete main)
    Параметр Endianness формата : Big
    Идентификатор кодека : A_AC3
    Продолжительность : 1 ч. 29 м.
    Вид битрейта : Постоянный
    Битрейт : 192 Кбит/сек
    Каналы : 2 канала
    Расположение каналов : Front: L R
    Частота : 48,0 КГц
    Частота кадров : 31,250 кадров/сек (1536 spf)
    Метод сжатия : С потерями
    Размер потока : 123 Мбайт (1%)
    Заголовок : AVO Карповский Антон Сергеевич
    Язык : Russian
    Default : Нет
    Forced : Нет

    Аудио #5
    Идентификатор : 6
    Формат : DTS
    Формат/Информация : Digital Theater Systems
    Режим : 16
    Параметр Endianness формата : Big
    Идентификатор кодека : A_DTS
    Продолжительность : 1 ч. 29 м.
    Вид битрейта : Постоянный
    Битрейт : 1509 Кбит/сек
    Каналы : 6 каналов
    Расположение каналов : Front: L C R, Side: L R, LFE
    Частота : 48,0 КГц
    Частота кадров : 93,750 кадра/сек (512 spf)
    Битовая глубина : 24 бит
    Метод сжатия : С потерями
    Размер потока : 969 Мбайт (10%)
    Язык : English
    Default : Нет
    Forced : Нет

    Текст #1
    Идентификатор : 7
    Формат : UTF-8
    Идентификатор кодека : S_TEXT/UTF8
    Идентификатор кодека/Информация : UTF-8 Plain Text
    Заголовок : andtwice
    Язык : Russian
    Default : Нет
    Forced : Нет

    Текст #2
    Идентификатор : 8
    Формат : UTF-8
    Идентификатор кодека : S_TEXT/UTF8
    Идентификатор кодека/Информация : UTF-8 Plain Text
    Заголовок : Димидрол
    Язык : Russian
    Default : Нет
    Forced : Нет

    Текст #3
    Идентификатор : 9
    Формат : UTF-8
    Идентификатор кодека : S_TEXT/UTF8
    Идентификатор кодека/Информация : UTF-8 Plain Text
    Заголовок : SDH
    Язык : English
    Default : Нет
    Forced : Нет

    Меню
    00:00:00.000 : :Chapter 01
    00:03:27.708 : :Chapter 02
    00:10:15.166 : :Chapter 03
    00:15:53.250 : :Chapter 04
    00:21:52.958 : :Chapter 05
    00:27:36.083 : :Chapter 06
    00:37:02.708 : :Chapter 07
    00:45:34.416 : :Chapter 08
    00:55:03.416 : :Chapter 09
    01:00:17.416 : :Chapter 10
    01:11:25.083 : :Chapter 11
    01:18:37.875 : :Chapter 12
    01:29:44.166 : :Chapter 13
    Свернуть


    [img]https://b.radikal.ru/b14/1812/dd/c3f0520a7b7a.jpg[/img][img]https://a.radikal.ru/a35/1812/28/28b15bcb29ca.jpg[/img][img]https://c.radikal.ru/c26/1812/51/a06ee34b4404.jpg[/img][img]https://b.radikal.ru/b22/1812/5f/64fe0e8a2212.jpg[/img]
    [img]https://b.radikal.ru/b27/1812/e1/a847e6d15c52.jpg[/img][img]https://c.radikal.ru/c26/1812/25/e6f53ae7439b.jpg[/img][img]https://d.radikal.ru/d41/1812/9f/9f032a5f9f2c.jpg[/img][img]https://c.radikal.ru/c31/1812/c3/8e0795b004c9.jpg[/img]
    Похожие раздачи Искать похожие
    Инструкция по скачиванию
     1  Качаем uTorrent версии 2.0 и выше
     2  После установки, жмем выше под постером на ссылку Скачать [MediaGet] или Скачать .torrent
     3  Открываем скачанный файл через соответствующий клиент: MediaGet или uTorrent
     4  Ждем пока подключатся участники
     5  Качаем
    Комментарии о  Ночь демонов / Night of the Demons | BDRip 1080p 
    Ближайшее в кино
    Вверх