• Игры для PS4
  • Игры для PS3
  • Игры для XBOX360
  • Игры для PC
  • Игры для PS2
  • Игры для PSP
  • Для телефонов
  • Музыка
  • Книги / Журналы
  • Обои
  • Опрос
    Откуда Вы о нас узнали?
      0
    • От знакомых2,1,false,300,full
    • Из социальных сетей2,2,false,300,full
    • Из поисковых систем2,3,false,300,full
    • Другое2,4,false,300,full
    Статистика
    Всего онлайн -
    Гостей -
    Пользователей -
    Короли трекера
    Благодарности () Закрыть
    Информация о фильме
    Название: Мертвец детектива Мегрэ
    Оригинальное название: Maigret"s Dead Man
    Год выхода: 2016
    Жанр: Драма, криминал, детектив
    Режиссер: Джон Ист
    В ролях: Роуэн Аткинсон, Анамария Маринка, Джон Лайт, Марк Хип, Люси Коху, Эйдан МакАрдл, Карен Ганьон, Катя Бокор, Эмбер Андерсон, Шон Дингуолл

    О фильме:
    Профессиональный детектив Мегрэ, раскрывший за свою карьеру сыщика немало громких преступлений, недавно начал получать звонки от таинственного незнакомца, который умолял его о помощи. Незнакомец говорил Мегрэ, что его жизнь в опасности, и вскоре сыщик узнает, что этого человека кто-то убил. Теперь делом чести является раскрытие такого дерзкого преступления, и Мегрэ уже увидел тонкую ниточку, которая должна привести его к убийце. Но чем больше профессиональный детектив углубляется в расследование странного дела, тем сильнее понимает, что за одним убийством следуют и другие, о которых не было ничего известно.



    Страна: Великобритания
    Студия: Ealing Studios, Maigret Productions
    Продолжительность: 01:28:14
    Перевод: Профессиональный многоголосый | Первый канал

    Файл
    Кодек: x.264
    Качество: BDRip 1080p | Maigrets.Dead.Man.2016.1080p.BluRay.x264-SHORTBREHD
    Видео: MPEG-4 AVC, 1920x1080, 9131 Kбит/с, 25.000 кадр/с
    Аудио #1: Русский ( АС3, 2ch, 192 Кбит/с, 48.0 KHz) Профессиональный (многоголосый, закадровый) Первый канал
    Аудио #2: Английский ( DTS, 6ch, 1510 Кбит/с, 48.0 KHz)
    Субтитры: русские, английские
    MediaInfo
    Источник: Maigrets.Dead.Man.2016.1080p.BluRay.x264-SHORTBREHD
    General
    Unique ID                      : 203043549237940771012491340123709365303 (0x98C0C3E0D16CAEB98953573DCA27DC37)
    Complete name                  : Maigrets.Dead.Man.2016.BDRip.1080p.mkv
    Format                         : Matroska
    Format version                 : Version 4
    File size                      : 6.68 GiB
    Duration                       : 1 h 28 min
    Overall bit rate               : 10.8 Mb/s
    Encoded date                   : UTC 2018-11-29 22:43:09
    Writing application            : mkvmerge v7.1.0 ("Good Love") 64bit built on Jul 27 2014 13:06:55
    Writing library                : libebml v1.3.0 + libmatroska v1.4.1

    Video
    ID                             : 1
    Format                         : AVC
    Format/Info                    : Advanced Video Codec
    Format profile                 : High@L4.1
    Format settings                : CABAC / 4 Ref Frames
    Format settings, CABAC         : Yes
    Format settings, ReFrames      : 4 frames
    Codec ID                       : V_MPEG4/ISO/AVC
    Duration                       : 1 h 28 min
    Bit rate                       : 9 131 kb/s
    Width                          : 1 920 pixels
    Height                         : 1 080 pixels
    Display aspect ratio           : 16:9
    Frame rate mode                : Constant
    Frame rate                     : 25.000 FPS
    Color space                    : YUV
    Chroma subsampling             : 4:2:0
    Bit depth                      : 8 bits
    Scan type                      : Progressive
    Bits/(Pixel*Frame)             : 0.176
    Stream size                    : 5.63 GiB (84%)
    Writing library                : x264 core 148 r2744 b97ae06
    Encoding settings              : cabac=1 / ref=4 / deblock=1:-3:-3 / analyse=0x3:0x113 / me=umh / subme=8 / psy=1 / psy_rd=1.00:0.00 / mixed_ref=1 / me_range=16 / chroma_me=1 / trellis=1 / 8x8dct=1 / cqm=0 / deadzone=21,11 / fast_pskip=1 / chroma_qp_offset=-2 / threads=6 / lookahead_threads=1 / sliced_threads=0 / nr=0 / decimate=1 / interlaced=0 / bluray_compat=0 / constrained_intra=0 / bframes=3 / b_pyramid=2 / b_adapt=2 / b_bias=0 / direct=3 / weightb=1 / open_gop=0 / weightp=2 / keyint=250 / keyint_min=25 / scenecut=40 / intra_refresh=0 / rc_lookahead=50 / rc=2pass / mbtree=1 / bitrate=9131 / ratetol=1.0 / qcomp=0.60 / qpmin=0 / qpmax=69 / qpstep=4 / cplxblur=20.0 / qblur=0.5 / ip_ratio=1.40 / aq=3:0.80
    Language                       : English
    Default                        : Yes
    Forced                         : No

    Audio #1
    ID                             : 2
    Format                         : AC-3
    Format/Info                    : Audio Coding 3
    Commercial name                : Dolby Digital
    Codec ID                       : A_AC3
    Duration                       : 1 h 28 min
    Bit rate mode                  : Constant
    Bit rate                       : 192 kb/s
    Channel(s)                     : 2 channels
    Channel layout                 : L R
    Sampling rate                  : 48.0 kHz
    Frame rate                     : 31.250 FPS (1536 SPF)
    Bit depth                      : 16 bits
    Compression mode               : Lossy
    Stream size                    : 121 MiB (2%)
    Language                       : Russian
    Service kind                   : Complete Main
    Default                        : Yes
    Forced                         : No

    Audio #2
    ID                             : 3
    Format                         : DTS
    Format/Info                    : Digital Theater Systems
    Codec ID                       : A_DTS
    Duration                       : 1 h 28 min
    Bit rate mode                  : Constant
    Bit rate                       : 1 509 kb/s
    Channel(s)                     : 6 channels
    Channel layout                 : C L R Ls Rs LFE
    Sampling rate                  : 48.0 kHz
    Frame rate                     : 93.750 FPS (512 SPF)
    Bit depth                      : 24 bits
    Compression mode               : Lossy
    Stream size                    : 952 MiB (14%)
    Language                       : English
    Default                        : No
    Forced                         : No

    Text #1
    ID                             : 4
    Format                         : UTF-8
    Codec ID                       : S_TEXT/UTF8
    Codec ID/Info                  : UTF-8 Plain Text
    Duration                       : 1 h 28 min
    Bit rate                       : 83 b/s
    Count of elements              : 864
    Stream size                    : 53.9 KiB (0%)
    Language                       : Russian
    Default                        : No
    Forced                         : No

    Text #2
    ID                             : 5
    Format                         : UTF-8
    Codec ID                       : S_TEXT/UTF8
    Codec ID/Info                  : UTF-8 Plain Text
    Duration                       : 1 h 27 min
    Bit rate                       : 54 b/s
    Count of elements              : 904
    Stream size                    : 34.5 KiB (0%)
    Language                       : English
    Default                        : No
    Forced                         : No

    Menu
    00:00:00.000                   : en:00:00:00.000
    00:10:29.120                   : en:00:10:29.120
    00:21:20.000                   : en:00:21:20.000
    00:29:47.960                   : en:00:29:47.960
    00:39:17.400                   : en:00:39:17.400
    00:50:11.880                   : en:00:50:11.880
    00:59:04.360                   : en:00:59:04.360
    01:08:34.880                   : en:01:08:34.880
    01:20:25.360                   : en:01:20:25.360
    Свернуть


    Похожие раздачи Искать похожие
    Инструкция по скачиванию
     1  Качаем uTorrent версии 2.0 и выше
     2  После установки, жмем выше под постером на ссылку Скачать [MediaGet] или Скачать .torrent
     3  Открываем скачанный файл через соответствующий клиент: MediaGet или uTorrent
     4  Ждем пока подключатся участники
     5  Качаем
    Комментарии о  Мертвец детектива Мегрэ / Maigret's Dead Man | BDRip 1080p 
    Ближайшее в кино
    Вверх