• Игры для PS4
  • Игры для PS3
  • Игры для XBOX360
  • Игры для PC
  • Игры для PS2
  • Игры для PSP
  • Для телефонов
  • Музыка
  • Книги / Журналы
  • Обои
  • Опрос
    Откуда Вы о нас узнали?
      0
    • От знакомых2,1,false,300,full
    • Из социальных сетей2,2,false,300,full
    • Из поисковых систем2,3,false,300,full
    • Другое2,4,false,300,full
    Статистика
    Всего онлайн -
    Гостей -
    Пользователей -
    Короли трекера
    Благодарности () Закрыть
    Информация о фильме
    Название: А вот и Полли
    Оригинальное название: Along Came Polly
    Год выхода: 2004
    Жанр:  Мелодрама, комедия
    Режиссер: Джон Гамбург
    В ролях: Бен Стиллер, Дженнифер Энистон, Филип Сеймур Хоффман, Дебра Мессинг, Алек Болдуин, Хэнк Азария, Брайан Браун, Хсу Гарсиа, Мишель Ли, Боб Диши

    О фильме :
    Рубен недавно женился на молодой и красивой девушке. Однако, как велико было его разочарование, когда в самый разгар медового месяца он поймал свою любимую жену в постели с другим мужчиной. Скромный страховой агент, который уже настроил планы на будущее, должен научиться жить заново. Рубен заводит роман с подругой детства, однако он не знал, какой сюрприз ожидает его на этот раз.



    Страна: США
    Студия: Jersey Films, Loofah Productions
    Продолжительность: 01:30:10
    Перевод: Профессиональный (полное дублирование)

    Файл
    Формат: MKV
    Качество: BDRip-AVC (BDRemux 1080p)
    Видео: MPEG-4 AVC, 784x424, - 1078 Кбит/с
    Аудио: [img]http://i93.fastpic.ru/big/2017/0727/c0/4b72f0369a3393219ed5935e91fc15c0.gif[/img] AAC-HE, 2 ch, - 76 Кбит/с
    Субтитры: Нет

    MI
    Общее
    Уникальный идентификатор : 174261504661446559677745597691971123918 (0x83198B84FF9BA71CB95EF7D2D81E3ACE)
    Полное имя : D:MOVIESAlong Came Polly.2004.BDRip-AVC.ExKinoRay.mkv
    Формат : Matroska
    Версия формата : Version 4 / Version 2
    Размер файла : 745 Мбайт
    Продолжительность : 1 ч. 30 м.
    Общий поток : 1155 Кбит/сек
    Дата кодирования : UTC 2018-12-02 04:55:10
    Программа кодирования : mkvmerge v15.0.0 ("Duel with the Devil") 64-bit
    Библиотека кодирования : libebml v1.3.5 + libmatroska v1.4.5
    Обложка : Yes
    Attachments : cover.png

    Видео
    Идентификатор : 1
    Формат : AVC
    Формат/Информация : Advanced Video Codec
    Профиль формата : High@L4.1
    Параметр CABAC формата : Да
    Параметр RefFrames формата : 12 кадров
    Идентификатор кодека : V_MPEG4/ISO/AVC
    Продолжительность : 1 ч. 30 м.
    Битрейт : 1078 Кбит/сек
    Ширина : 784 пикселя
    Высота : 424 пикселя
    Соотношение сторон : 1,85:1
    Режим частоты кадров : Постоянный
    Частота кадров : 23,976 (24000/1001) кадра/сек
    Цветовое пространство : YUV
    Субдискретизация насыщенности : 4:2:0
    Битовая глубина : 8 бит
    Тип развёртки : Прогрессивная
    Бит/(Пиксели*Кадры) : 0.135
    Размер потока : 695 Мбайт (93%)
    Библиотека кодирования : x264 core 152 r2851kMod ba24899
    Настройки программы : cabac=1 / ref=12 / deblock=1:-2:-2 / analyse=0x3:0x133 / me=umh / subme=10 / psy=1 / fade_compensate=0.00 / psy_rd=1.00:0.14 / mixed_ref=1 / me_range=32 / chroma_me=1 / trellis=2 / 8x8dct=1 / cqm=0 / deadzone=21,11 / fast_pskip=0 / chroma_qp_offset=-3 / threads=6 / lookahead_threads=1 / sliced_threads=0 / nr=0 / decimate=0 / interlaced=0 / bluray_compat=0 / constrained_intra=0 / bframes=11 / b_pyramid=2 / b_adapt=2 / b_bias=0 / direct=3 / weightb=1 / open_gop=0 / weightp=2 / keyint=240 / keyint_min=23 / scenecut=40 / intra_refresh=0 / rc_lookahead=40 / rc=2pass / mbtree=1 / bitrate=1078 / ratetol=1.0 / qcomp=0.60 / qpmin=0 / qpmax=69 / qpstep=4 / cplxblur=20.0 / qblur=0.5 / ip_ratio=1.40 / aq=3:1.00
    Default : Да
    Forced : Нет

    Аудио
    Идентификатор : 2
    Формат : AAC
    Формат/Информация : Advanced Audio Codec
    Профиль формата : HE-AAC / LC
    Идентификатор кодека : A_AAC
    Продолжительность : 1 ч. 30 м.
    Битрейт : 76,0 Кбит/сек
    Каналы : 2 канала
    Расположение каналов : Front: L R
    Частота : 48,0 КГц / 24,0 КГц
    Частота кадров : 23,438 кадра/сек (1024 SPF)
    Метод сжатия : С потерями
    Задержка видео : 31 мс.
    Размер потока : 49,0 Мбайт (7%)
    Язык : Russian
    Default : Да
    Forced : Нет
    Свернуть


    Скриншоты

    [screen]http://img14.lostpic.net/2018/12/02/9c93193461a4fd996f087e6e77f65359.png[/screen][screen]http://img14.lostpic.net/2018/12/02/3bdb8cd11a39d410d090a096aa3d7bca.png[/screen][screen]http://img14.lostpic.net/2018/12/02/a5c8721e55a7b6d3bb9d9319e438cf5f.png[/screen][screen]http://img14.lostpic.net/2018/12/02/869b9acd5402c6271e6daf1c92d0a8c5.png[/screen][screen]http://img14.lostpic.net/2018/12/02/41436fb3f2840f452c82aabc42185a13.png[/screen][screen]http://img14.lostpic.net/2018/12/02/446ff72266d6022b8de89a22b25c77d1.png[/screen][screen]http://img14.lostpic.net/2018/12/02/b7906a46fa17cd6fcb81c3afb54b7f91.png[/screen][screen]http://img14.lostpic.net/2018/12/02/4d0f81a96c4395f61cfd3dc20d0d947e.png[/screen]
    Свернуть


    [img]http://i101.fastpic.ru/big/2018/0205/db/2bb5d8d6418a0fdc34277325cb111edb.gif[/img][img]http://i92.fastpic.ru/big/2017/0727/ee/d5deb5b73669b4c45974c6b5d6c309ee.gif[/img] [img]http://img12.lostpic.net/2018/03/09/13af6981458d1d0b6a9d5e5286e0688e.gif[/img][img]http://i92.fastpic.ru/big/2017/0727/34/cf9a17c70dfe7fe87e42af3f9f29e734.gif[/img]
    Похожие раздачи Искать похожие
    Инструкция по скачиванию
     1  Качаем uTorrent версии 2.0 и выше
     2  После установки, жмем выше под постером на ссылку Скачать [MediaGet] или Скачать .torrent
     3  Открываем скачанный файл через соответствующий клиент: MediaGet или uTorrent
     4  Ждем пока подключатся участники
     5  Качаем
    Комментарии о  А вот и Полли / Along Came Polly | BDRip-AVC 
    Ближайшее в кино
    Вверх