• Игры для PS4
  • Игры для PS3
  • Игры для XBOX360
  • Игры для PC
  • Игры для PS2
  • Игры для PSP
  • Для телефонов
  • Музыка
  • Книги / Журналы
  • Обои
  • Опрос
    Удобен ли сайт в использовании?
      0
    • Очень удобен, все понятно1,1,false,300,full
    • Удобен1,2,false,300,full
    • Средне1,3,false,300,full
    • Неудобен, трудно ориентироваться1,4,false,300,full
    • Совсем неудобен1,5,false,300,full
    Статистика
    Всего онлайн -
    Гостей -
    Пользователей -
    Короли трекера
    Благодарности () Закрыть
    Информация о фильме
    Оригинальное название: Никто, кроме нас
    Год выпуска: 2018
    Жанр:  Мелодрама
    Режиссер: Рано Кубаева
    В ролях: Кристина Кузьмина, Наталья Ткаченко, Александр Кудренко, Геннадий Смирнов, Дарья Пармененкова, Андрис Булис, Надежда Мельникова, Мария Скуратова (II), Екатерина Белова (III)

    О фильме: Несмотря на то, что Вера и Люба – сёстры, они абсолютно разные. Для Веры главное в жизни – это работа. Она высококлассный хирург и отдает профессии все свое время и силы, жертвуя порой отношениями с дочерью и личным счастьем. Люба – домохозяйка. Всю себя она посвящает мужу и детям. Из-за разных взглядов на жизнь сестры постоянно ссорятся и уже практически не разговаривают друг с другом. Но внезапно все меняется! Оказывается, что Люба не нужна ни мужу, ни детям, которые устали от ее заботы. А Веру отстраняют от работы – ее предали коллеги, и ей грозит тюрьма. Теперь сестрам придется искать путь друг к другу, ведь никто кроме них самих им не поможет...



    Страна: Россия
    Студия: Беркана, Медиа-Арена
    Продолжительность: 02:56:43
    Перевод: Не требуется
    Субтитры: нет

    Файл
    Формат: avi
    Качество: HDTVRip
    Видео: XviD build 73, 720x400 (16:9), 25.000 fps, 1559 Kbps (0.217 bit/pixel)
    Звук: 48.0 kHz, AC3, 2/0 ch, 192 kbps

    MediaInfo
    General
    Complete name               : D:RazdachiNikto.Krome.Nas.2018.XviD.HDTVRip.GeneralFilm.avi
    Format                      : AVI
    Format/Info                 : Audio Video Interleave
    Format profile              : OpenDML
    File size                   : 2.18 GiB
    Duration                    : 2 h 56 min
    Overall bit rate            : 1 763 kb/s
    Writing application         : VirtualDubMod 1.5.10.3 | www.virtualdub-fr.org || (build 2550/release)
    Writing library             : VirtualDubMod build 2550/release

    Video
    ID                          : 0
    Format                      : MPEG-4 Visual
    Format profile              : Advanced Simple@L5
    Format settings, BVOP       : 1
    Format settings, QPel       : No
    Format settings, GMC        : No warppoints
    Format settings, Matrix     : Custom
    Codec ID                    : XVID
    Codec ID/Hint               : XviD
    Duration                    : 2 h 56 min
    Bit rate                    : 1 559 kb/s
    Width                       : 720 pixels
    Height                      : 400 pixels
    Display aspect ratio        : 16:9
    Frame rate                  : 25.000 FPS
    Color space                 : YUV
    Chroma subsampling          : 4:2:0
    Bit depth                   : 8 bits
    Scan type                   : Progressive
    Compression mode            : Lossy
    Bits/(Pixel*Frame)          : 0.217
    Stream size                 : 1.92 GiB (88%)
    Writing library             : XviD 73

    Audio
    ID                          : 1
    Format                      : AC-3
    Format/Info                 : Audio Coding 3
    Format settings, Endianness : Big
    Codec ID                    : 2000
    Duration                    : 2 h 56 min
    Bit rate mode               : Constant
    Bit rate                    : 192 kb/s
    Channel(s)                  : 2 channels
    Channel positions           : Front: L R
    Sampling rate               : 48.0 kHz
    Frame rate                  : 31.250 FPS (1536 SPF)
    Bit depth                   : 16 bits
    Compression mode            : Lossy
    Stream size                 : 243 MiB (11%)
    Alignment                   : Split accross interleaves
    Interleave, duration        : 40  ms (1.00 video frame)
    Interleave, preload duratio : 500  ms
    Service kind                : Complete MainСвернуть


    Инструкция по скачиванию
     1  Качаем uTorrent версии 2.0 и выше
     2  После установки, жмем выше под постером на ссылку Скачать [MediaGet] или Скачать .torrent
     3  Открываем скачанный файл через соответствующий клиент: MediaGet или uTorrent
     4  Ждем пока подключатся участники
     5  Качаем
    Комментарии о  Никто, кроме нас | HDTVRip 
    Ближайшее в кино
    Вверх