• Игры для PS4
  • Игры для PS3
  • Игры для XBOX360
  • Игры для PC
  • Игры для PS2
  • Игры для PSP
  • Для телефонов
  • Музыка
  • Книги / Журналы
  • Обои
  • Опрос
    Удобен ли сайт в использовании?
      0
    • Очень удобен, все понятно1,1,false,300,full
    • Удобен1,2,false,300,full
    • Средне1,3,false,300,full
    • Неудобен, трудно ориентироваться1,4,false,300,full
    • Совсем неудобен1,5,false,300,full
    Статистика
    Всего онлайн -
    Гостей -
    Пользователей -
    Короли трекера
    Благодарности () Закрыть
    Информация о фильме
    Название: К нам приехала ярмарка
    Оригинальное название: Prijela k nám pout
    Год выхода: 1973
    Жанр: мюзикл, семейный
    Режиссер: Вера Пливова-Шимкова
    В ролях: Рената Машкова, Зузана Быджовска, Роман Чада, Жан Дворак, Здена Гадрболцова, Рената Коларжова, Ивета Корнова, Вацлав Котва, Людовит Кронер, Людек Кучера, Ивана Маржикова, Либуше Шафранкова, Томаш Шимек, Роман Скамене

    О фильме:
    История дружбы двух девочек. А также соперничества двух футбольных команд из соседних деревень, которые соперничают не только на футбольном поле. Каждая пытается заполучить к себе новичка Янека, который прибыл с ярмаркой и играет в футбол "как Пеле". В фильме очень много музыки, песен, танцев.

    [img]http://i104.fastpic.ru/big/2018/0505/c4/596ae66f258fea870b13e320b38d15c4.gif[/img]

    Производство: Чехословакия / Filmové studio Barrandov
    Продолжительность: 01:15:32
    Перевод: русские субтитры от dido123

    Файл
    Качество: HDTVRip 720p
    Формат: MKV
    Видео: MPEG-4 AVC, 1280x720 (16:9), 25.000 fps, 5825 kbps, 0.253 bit/pixel
    Аудио: чешский, AC3 2.0, 48 kHz, 224 kbps
    Субтитры: русские вшитые отключаемые

    MediaInfo
    Общее
    Уникальный идентификатор                 : 201949956381454967569688011418852877403 (0x97EE2596681D23ED80AEE8F247C7645B)
    Полное имя                               : Prijela.K.Nam.Pout.1973.HDTVRip.mkv
    Формат                                   : Matroska
    Версия формата                           : Version 4 / Version 2
    Размер файла                             : 3,26 Гбайт
    Продолжительность                        : 1 ч. 15 м.
    Общий поток                              : 6172 Кбит/сек
    Дата кодирования                         : UTC 2018-07-09 04:34:13
    Программа кодирования                    : mkvmerge v9.4.2 ("So High") 64bit
    Библиотека кодирования                   : Lavf57.25.100
    DURATION                                 : 01:14:16.470000000
    NUMBER_OF_FRAMES                         : 784
    NUMBER_OF_BYTES                          : 40221
    _STATISTICS_WRITING_APP                  : mkvmerge v9.4.2 ("So High") 64bit
    _STATISTICS_WRITING_DATE_UTC             : 2018-07-09 04:34:13
    _STATISTICS_TAGS                         : BPS DURATION NUMBER_OF_FRAMES NUMBER_OF_BYTES

    Видео
    Идентификатор                            : 1
    Формат                                   : AVC
    Формат/Информация                        : Advanced Video Codec
    Профиль формата                          : High@L4.1
    Параметр CABAC формата                   : Да
    Параметр ReFrames формата                : 4 кадра
    Параметр GOP формата                     : M=3, N=25
    Идентификатор кодека                     : V_MPEG4/ISO/AVC
    Продолжительность                        : 1 ч. 15 м.
    Битрейт                                  : 5825 Кбит/сек
    Ширина                                   : 1280 пикселей
    Высота                                   : 720 пикселей
    Соотношение сторон                       : 16:9
    Режим частоты кадров                     : Постоянный
    Частота кадров                           : 25,000 кадров/сек
    Цветовое пространство                    : YUV
    Субдискретизация насыщенности            : 4:2:0
    Битовая глубина                          : 8 бит
    Тип развёртки                            : Прогрессивная
    Бит/(Пиксели*Кадры)                      : 0.253
    Размер потока                            : 3,07 Гбайт (94%)
    Default                                  : Да
    Forced                                   : Нет
    DURATION                                 : 01:15:32.040000000
    NUMBER_OF_FRAMES                         : 113301
    NUMBER_OF_BYTES                          : 3368299544
    _STATISTICS_WRITING_APP                  : mkvmerge v9.4.2 ("So High") 64bit
    _STATISTICS_WRITING_DATE_UTC             : 2018-07-09 04:34:13
    _STATISTICS_TAGS                         : BPS DURATION NUMBER_OF_FRAMES NUMBER_OF_BYTES

    Аудио
    Идентификатор                            : 2
    Формат                                   : AC-3
    Формат/Информация                        : Audio Coding 3
    Расширение режима                        : CM (complete main)
    Параметр Endianness формата              : Big
    Идентификатор кодека                     : A_AC3
    Продолжительность                        : 1 ч. 15 м.
    Вид битрейта                             : Постоянный
    Битрейт                                  : 224 Кбит/сек
    Каналы                                   : 2 канала
    Расположение каналов                     : Front: L R
    Частота                                  : 48,0 КГц
    Метод сжатия                             : С потерями
    Задержка видео                           : -80 мс.
    Размер потока                            : 121 Мбайт (4%)
    Язык                                     : Czech
    Default                                  : Да
    Forced                                   : Нет
    DURATION                                 : 01:15:32.064000000
    NUMBER_OF_FRAMES                         : 141627
    NUMBER_OF_BYTES                          : 126897792
    _STATISTICS_WRITING_APP                  : mkvmerge v9.4.2 ("So High") 64bit
    _STATISTICS_WRITING_DATE_UTC             : 2018-07-09 04:34:13
    _STATISTICS_TAGS                         : BPS DURATION NUMBER_OF_FRAMES NUMBER_OF_BYTES

    Текст
    Идентификатор                            : 3
    Формат                                   : UTF-8
    Идентификатор кодека                     : S_TEXT/UTF8
    Идентификатор кодека/Информация          : UTF-8 Plain Text
    Язык                                     : Russian
    Default                                  : Да
    Forced                                   : Нет
    Свернуть


    Скриншоты
    [screen]https://i106.fastpic.ru/big/2018/1124/88/7c39e832daf46832ec51ea5526350f88.jpg[/screen][screen]https://i106.fastpic.ru/big/2018/1124/02/c17a89ff2271ac4bcd4c22f33dd11a02.jpg[/screen][screen]https://i106.fastpic.ru/big/2018/1124/e2/6b01161a33c10e8a0bca9b39f66549e2.jpg[/screen][screen]https://i106.fastpic.ru/big/2018/1124/7b/e7048d4185afd7b3c3f24911fff1ff7b.jpg[/screen][screen]https://i106.fastpic.ru/big/2018/1124/27/c79d47181a1dd74b481ba35246a97827.jpg[/screen][screen]https://i106.fastpic.ru/big/2018/1124/39/5184f42c0fb0c8c355d6f96373499739.jpg[/screen][screen]https://i106.fastpic.ru/big/2018/1124/ff/0d9e9390fa5872e667ad489dedc3e5ff.jpg[/screen][screen]https://i106.fastpic.ru/big/2018/1124/3e/b54ce8d480242eeac14bb10d2095a43e.jpg[/screen][screen]https://i106.fastpic.ru/big/2018/1124/90/dfb511d7f4a71205421164ee21df0990.jpg[/screen][screen]https://i106.fastpic.ru/big/2018/1124/95/c8b4335bece22e8c1b26b252d950f295.jpg[/screen][screen]https://i106.fastpic.ru/big/2018/1124/63/157626fd9fcd8bba1f8073c44fa92363.jpg[/screen][screen]https://i106.fastpic.ru/big/2018/1124/c8/89aec49f57dd7aa106e983a9235d6ac8.jpg[/screen][screen]https://i106.fastpic.ru/big/2018/1124/3a/cd24fa009bfc94b3144e996f2bb67d3a.jpg[/screen][screen]https://i106.fastpic.ru/big/2018/1124/9e/1572b5b9bd58a720610ce87f0d9bab9e.jpg[/screen][screen]https://i106.fastpic.ru/big/2018/1124/27/3da6b78a9c6038aafa4d263501952527.jpg[/screen][screen]https://i106.fastpic.ru/big/2018/1124/7d/0dd84c413e834f2013f468f86fe5087d.jpg[/screen]Свернуть
    Похожие раздачи Искать похожие
    Инструкция по скачиванию
     1  Качаем uTorrent версии 2.0 и выше
     2  После установки, жмем выше под постером на ссылку Скачать [MediaGet] или Скачать .torrent
     3  Открываем скачанный файл через соответствующий клиент: MediaGet или uTorrent
     4  Ждем пока подключатся участники
     5  Качаем
    Комментарии о  К нам приехала ярмарка / Prijela k nám pout | HDTVRip 720p 
    Ближайшее в кино
    Вверх