• Игры для PS4
  • Игры для PS3
  • Игры для XBOX360
  • Игры для PC
  • Игры для PS2
  • Игры для PSP
  • Для телефонов
  • Музыка
  • Книги / Журналы
  • Обои
  • Опрос
    Откуда Вы о нас узнали?
      0
    • От знакомых2,1,false,300,full
    • Из социальных сетей2,2,false,300,full
    • Из поисковых систем2,3,false,300,full
    • Другое2,4,false,300,full
    Статистика
    Всего онлайн -
    Гостей -
    Пользователей -
    Короли трекера
    Благодарности () Закрыть
    Информация о фильме
    Название: Хвост Феи
    Оригинальное название: Fairy Tail
    Год выпуска: 2018
    Жанр:  Приключения, фэнтези, комедия, сёнэн, мультсериал
    Режиссер: Синдзи Исихира
    В ролях: Тэцуя Какихара, Ая Хирано, Риэ Кугимия, Юйти Накамура, Саяка Охара, Сатоми Сато, Юй Хориэ, Ватару Хатано, Май Накахара, Кацуюки Кониси

    О фильме:
    Прошёл год с тех пор, как Макаров объявил о роспуске Хвоста феи. Все члены гильдии разошлись по миру. Люси всерьёз занялась журналистикой в столице. Но скуку её новой жизни развеял Нацу, неожиданно заявившийся на Великие магические игры. Теперь они вместе отправились на поиски остальных участников легендарной гильдии.

    [img]https://u.myshows.me/r/231.png[/img]
    Страна: Япония
    Студия: Bridge, A-1 Pictures Inc.
    Продолжительность: 9 x ~ 00:24:00
    Перевод: Любительский многоголосый | ColdFilm

    Файл
    Кодек: x264 (AVC)
    Качество: WEBRip 1080p
    Видео: ~ 4500 Кбит/с, 1920x1080, 23.976 fps
    Звук: Русский / AC3 / 2.0 / 128 kbs

    [img]http://s020.radikal.ru/i712/1701/ad/1bb0bd9bc94a.gif[/img][img]https://a.radikal.ru/a25/1808/89/98e67176e03c.png[/img]

    Скриншоты

    [screen]https://i1.imageban.ru/out/2018/10/08/109284c4da2b73c7c23e2fac4daf7da4.png[/screen][screen]https://i1.imageban.ru/out/2018/10/08/9fd49e8efbcb3c744405daef458e24f7.png[/screen][screen]https://i4.imageban.ru/out/2018/10/08/2f946609a6b3a83c790c0cb8a76bfb7d.png[/screen][screen]https://i3.imageban.ru/out/2018/10/08/416ec10be17851bc568d66adef4aa9cb.png[/screen]
    Свернуть


    MI

    General
    Unique ID                   : 213928200106945787302334318668360746669 (0xA0F112996B2E18CD87A34A42FC4486AD)
    Complete name               : Fairy.Tail.S03E01.1080p.ColdFilm.mkv
    Format                      : Matroska
    Format version              : Version 2
    File size                   : 827 MiB
    Duration                    : 24 min 18 s
    Overall bit rate            : 4 757 kb/s
    Encoded date                : UTC 2018-10-07 00:58:27 / UTC 1970-01-01 00:00:00
    Writing application         : mkvmerge v3.3.0 ("Language") built on Mar 24 2010 14:59:24
    Writing library             : libebml v0.8.0 + libmatroska v0.9.0 / Lavf54.63.104

    Video
    ID                          : 1
    Format                      : AVC
    Format/Info                 : Advanced Video Codec
    Format profile              : Main@L4
    Format settings             : CABAC / 1 Ref Frames
    Format settings, CABAC      : Yes
    Format settings, ReFrames   : 1 frame
    Codec ID                    : V_MPEG4/ISO/AVC
    Duration                    : 24 min 18 s
    Bit rate                    : 4 500 kb/s
    Width                       : 1 920 pixels
    Height                      : 1 080 pixels
    Display aspect ratio        : 16:9
    Frame rate mode             : Constant
    Frame rate                  : 23.976 (24000/1001) FPS
    Color space                 : YUV
    Chroma subsampling          : 4:2:0
    Bit depth                   : 8 bits
    Scan type                   : Progressive
    Bits/(Pixel*Frame)          : 0.091
    Stream size                 : 777 MiB (94%)
    Writing library             : x264 core 129
    Default                     : No
    Forced                      : No

    Audio
    ID                          : 2
    Format                      : AC-3
    Format/Info                 : Audio Coding 3
    Codec ID                    : A_AC3
    Duration                    : 24 min 18 s
    Bit rate mode               : Constant
    Bit rate                    : 192 kb/s
    Channel(s)                  : 2 channels
    Channel positions           : Front: L R
    Sampling rate               : 48.0 kHz
    Frame rate                  : 31.250 FPS (1536 SPF)
    Bit depth                   : 16 bits
    Compression mode            : Lossy
    Stream size                 : 33.4 MiB (4%)
    Service kind                : Complete Main
    Default                     : Yes
    Forced                      : No

    Свернуть
    Похожие раздачи Искать похожие
    Инструкция по скачиванию
     1  Качаем uTorrent версии 2.0 и выше
     2  После установки, жмем выше под постером на ссылку Скачать [MediaGet] или Скачать .torrent
     3  Открываем скачанный файл через соответствующий клиент: MediaGet или uTorrent
     4  Ждем пока подключатся участники
     5  Качаем
    Комментарии о  Сказка о хвосте феи / Fairy Tail [Сезон 03 | 01-09 серии из 25] | WEBRip 1080p 
    Ближайшее в кино
    Вверх