• Игры для PS4
  • Игры для PS3
  • Игры для XBOX360
  • Игры для PC
  • Игры для PS2
  • Игры для PSP
  • Для телефонов
  • Музыка
  • Книги / Журналы
  • Обои
  • Опрос
    Удобен ли сайт в использовании?
      0
    • Очень удобен, все понятно1,1,false,300,full
    • Удобен1,2,false,300,full
    • Средне1,3,false,300,full
    • Неудобен, трудно ориентироваться1,4,false,300,full
    • Совсем неудобен1,5,false,300,full
    Статистика
    Всего онлайн -
    Гостей -
    Пользователей -
    Короли трекера
    Благодарности () Закрыть
    Информация о фильме
    Название: Дубликат
    Оригинальное название: Jonathan
    Год выхода: 2018
    Жанр: Фантастика, драма
    Режиссер: Билл Оливер
    В ролях: Энсел Элгорт, Патришия Кларксон, Сьюки Уотерхаус, Мэтт Бомер, Дуглас Ходж, Джо Эгендер, Джефф Ким, Аласка Л. МакФедден, Джули Микельсон, Шунори Раманатхан

    О фильме: Как многие жители Манхэттена, Джонатан просыпается ровно в 7 утра и отправляется на работу, а вечером ложится спать. Вроде бы всё, как у всех. Если бы не одно «но» — каждый день молодой человек проживает две жизни. Пока одна личность спит, вторая ведёт активную жизнь. И каждое утро Джонатану приходит видео от самого себя — о том, что он делал во второй половине дня.

    [img]http://i89.fastpic.ru/big/2017/0502/69/67d521d70873d2399dac9e7d05d0b369.png[/img]

    Страна: США
    Студия: Manis Film, Raised by Wolves
    Продолжительность: 01:40:46
    Перевод: Профессиональный (многоголосый, закадровый) | iTunes
    Субтитры: Нет

    Файл
    Кодек: XviD
    Качество: WEB-DLRip
    Видео: 720x304 (2.37:1), 23.976 fps, XviD build 73 ~894 kbps avg, 0.17 bit/pixel
    Звук: 48 kHz, MPEG Layer 3, 2 ch, ~128.00 kbps avg

    MediaInfo
    General
    Complete name               : Jonathan.2018.WEB-DLRip.Portablius.avi
    Format                      : AVI
    Format/Info                 : Audio Video Interleave
    File size                   : 744 MiB
    Duration                    : 1 h 40 min
    Overall bit rate            : 1 032 kb/s
    Writing application         : VirtualDubMod 1.5.10.3 | www.virtualdub-fr.org || (build 2550/release)
    Writing library             : VirtualDubMod build 2550/release

    Video
    ID                          : 0
    Format                      : MPEG-4 Visual
    Format profile              : Advanced Simple@L5
    Format settings, BVOP       : 1
    Format settings, QPel       : No
    Format settings, GMC        : No warppoints
    Format settings, Matrix     : Custom
    Codec ID                    : XVID
    Codec ID/Hint               : XviD
    Duration                    : 1 h 40 min
    Bit rate                    : 894 kb/s
    Width                       : 720 pixels
    Height                      : 304 pixels
    Display aspect ratio        : 2.35:1
    Frame rate                  : 23.976 (24000/1001) FPS
    Color space                 : YUV
    Chroma subsampling          : 4:2:0
    Bit depth                   : 8 bits
    Scan type                   : Progressive
    Compression mode            : Lossy
    Bits/(Pixel*Frame)          : 0.170
    Stream size                 : 645 MiB (87%)
    Writing library             : XviD 73

    Audio
    ID                          : 1
    Format                      : MPEG Audio
    Format version              : Version 1
    Format profile              : Layer 3
    Codec ID                    : 55
    Codec ID/Hint               : MP3
    Duration                    : 1 h 40 min
    Bit rate mode               : Constant
    Bit rate                    : 128 kb/s
    Channel(s)                  : 2 channels
    Sampling rate               : 48.0 kHz
    Compression mode            : Lossy
    Stream size                 : 92.2 MiB (12%)
    Alignment                   : Aligned on interleaves
    Interleave, duration        : 42  ms (1.00 video frame)
    Interleave, preload duratio : 504  ms
    Writing library             : LAME3.99r
    Encoding settings           : -m s -V 4 -q 2 -lowpass 17 -b 128

    Свернуть


    Похожие раздачи Искать похожие
    Инструкция по скачиванию
     1  Качаем uTorrent версии 2.0 и выше
     2  После установки, жмем выше под постером на ссылку Скачать [MediaGet] или Скачать .torrent
     3  Открываем скачанный файл через соответствующий клиент: MediaGet или uTorrent
     4  Ждем пока подключатся участники
     5  Качаем
    Комментарии о  Дубликат / Jonathan | WEB-DLRip 
    Ближайшее в кино
    Вверх