• Игры для PS4
  • Игры для PS3
  • Игры для XBOX360
  • Игры для PC
  • Игры для PS2
  • Игры для PSP
  • Для телефонов
  • Музыка
  • Книги / Журналы
  • Обои
  • Опрос
    Откуда Вы о нас узнали?
      0
    • От знакомых2,1,false,300,full
    • Из социальных сетей2,2,false,300,full
    • Из поисковых систем2,3,false,300,full
    • Другое2,4,false,300,full
    Статистика
    Всего онлайн -
    Гостей -
    Пользователей -
    Короли трекера
    Благодарности () Закрыть
    Год выхода:  1993
    Страна: США / New Line Cinema,3 Arts Entertainment
    Жанр:  Боевик, комедия, криминал, пародия
    Продолжительность: 01:22:36
    Перевод: Профессиональный многоголосый, профессиональный двухголосый, авторский

    Режиссер: Джин Квинтано
    В главных ролях: Эмилио Эстевез, Сэмюэл Л. Джексон, Джон Ловиц, Тим Карри, Кэти Айрлэнд, Фрэнк МакРей, Уильям Шэтнер, Диру Шах

    Описание: Два детектива — Джек Кольт и Уэс Люгер — полицейские, вступившие в борьбу с наркомафией, которой руководит жестокий генерал Кёртис Мортарс. В этом им помогает напарница, которую впоследствии убивают по приказанию генерала, в результате чего расследование дела превращается в личную месть.

    Качество: WEBRip 1080p
    Видео: HEVC/H.265, 1920x1040, ~6294 Kbps
    Аудио 1: AC3, 2 ch, 192 Kbps - AVO, (Михалёв)
    Аудио 2: AC3, 2 ch, 192 Kbps - AVO, (Володарский)
    Аудио 3: AC3, 2 ch, 192 Kbps - AVO, (Горчаков)
    Аудио 4: AC3, 2 ch, 192 Kbps - AVO, (Котов)
    Аудио 5: AC3, 2 ch, 192 Kbps - DVO, (НТВ / РТР)
    Аудио 6: AC3, 2 ch, 192 Kbps - MVO, (ТНТ)
    Аудио 7: AC3, 2 ch, 192 Kbps - MVO, (ТВ3)
    Субтитры: Нет

    [img]https://d.radikal.ru/d04/1810/26/868b0347e583.gif[/img]

    Mediainfo
    Общее
    Уникальный идентификатор                 : 80800717933730041917719838137021550216 (0x3CC9A6F7DE0B3984D52CF01BE7C6CE88)
    Полное имя                               : F:РАЗДАЧИЗаряженное оружие 1. 1993. HDRip 1080p.HEVC.mkv
    Формат                                   : Matroska
    Версия формата                           : Version 4 / Version 2
    Размер файла                             : 4,40 Гбайт
    Продолжительность                        : 1 ч. 22 м.
    Общий поток                              : 7632 Кбит/сек
    Дата кодирования                         : UTC 2018-11-29 18:30:58
    Программа кодирования                    : mkvmerge v28.0.0 ("Voice In My Head") 64-bit
    Библиотека кодирования                   : libebml v1.3.6 + libmatroska v1.4.9 / Lavf57.71.100
    Обложка                                  : Yes
    Attachments                              : cover.jpg
    ENCODING_INFO                            : MATROSKA,WEBM > MKV / H264 > X265 CRF 18.0 Placebo / AC3 > COPY Безопасное / AC3 > COPY Безопасное / AC3 > COPY Безопасное / AC3 > COPY Безопасное / AC3 > COPY Безопасное / AC3 > COPY Безопасное / AC3 > COPY Безопасное

    Видео
    Идентификатор                            : 1
    Формат                                   : HEVC
    Формат/Информация                        : High Efficiency Video Coding
    Профиль формата                          : Main 10@L5.1@High
    Идентификатор кодека                     : V_MPEGH/ISO/HEVC
    Продолжительность                        : 1 ч. 22 м.
    Битрейт                                  : 6294 Кбит/сек
    Ширина                                   : 1920 пикселей
    Высота                                   : 1040 пикселей
    Соотношение сторон                       : 1,85:1
    Режим частоты кадров                     : Постоянный
    Частота кадров                           : 23,976 (24000/1001) кадра/сек
    Цветовое пространство                    : YUV
    Субдискретизация насыщенности            : 4:2:0
    Битовая глубина                          : 10 бит
    Бит/(Пиксели*Кадры)                      : 0.131
    Размер потока                            : 3,63 Гбайт (82%)
    Библиотека кодирования                   : x265 2.8+74-fd517ae68f93:[Windows][GCC 7.3.0][64 bit] 10bit
    Настройки программы                      : cpuid=1049583 / frame-threads=9 / numa-pools=8 / wpp / no-pmode / no-pme / no-psnr / no-ssim / log-level=3 / input-csp=1 / input-res=1920x1040 / interlace=0 / total-frames=0 / level-idc=51 / high-tier=1 / uhd-bd=0 / ref=5 / allow-non-conformance / no-repeat-headers / annexb / no-aud / no-hrd / info / hash=0 / no-temporal-layers / open-gop / min-keyint=24 / keyint=240 / gop-lookahead=0 / bframes=8 / b-adapt=2 / b-pyramid / bframe-bias=0 / rc-lookahead=60 / lookahead-slices=6 / scenecut=40 / radl=0 / no-intra-refresh / ctu=64 / min-cu-size=8 / no-rect / no-amp / max-tu-size=32 / tu-inter-depth=1 / tu-intra-depth=1 / limit-tu=0 / rdoq-level=0 / dynamic-rd=0.00 / no-ssim-rd / signhide / no-tskip / nr-intra=0 / nr-inter=0 / no-constrained-intra / strong-intra-smoothing / max-merge=2 / limit-refs=3 / no-limit-modes / me=3 / subme=7 / merange=92 / temporal-mvp / weightp / weightb / no-analyze-src-pics / deblock=-1:-1 / sao / no-sao-non-deblock / rd=3 / no-early-skip / rskip / no-fast-intra / no-tskip-fast / no-cu-lossless / no-b-intra / no-splitrd-skip / rdpenalty=0 / psy-rd=2.00 / psy-rdoq=0.00 / no-rd-refine / no-lossless / cbqpoffs=0 / crqpoffs=0 / rc=crf / crf=18.0 / qcomp=0.60 / qpstep=4 / stats-write=0 / stats-read=0 / vbv-maxrate=160000 / vbv-bufsize=160000 / vbv-init=0.9 / crf-max=18.0 / crf-min=0.0 / ipratio=1.40 / pbratio=1.30 / aq-mode=1 / aq-strength=1.00 / cutree / zone-count=0 / no-strict-cbr / qg-size=32 / no-rc-grain / qpmax=69 / qpmin=0 / no-const-vbv / sar=1 / overscan=0 / videoformat=5 / range=0 / colorprim=1 / transfer=1 / colormatrix=1 / chromaloc=0 / display-window=0 / max-cll=0,0 / min-luma=0 / max-luma=1023 / log2-max-poc-lsb=8 / vui-timing-info / vui-hrd-info / slices=1 / no-opt-qp-pps / no-opt-ref-list-length-pps / no-multi-pass-opt-rps / scenecut-bias=0.05 / no-opt-cu-delta-qp / no-aq-motion / no-hdr / no-hdr-opt / no-dhdr10-opt / no-idr-recovery-sei / analysis-reuse-level=5 / scale-factor=0 / refine-intra=0 / refine-inter=0 / refine-mv=0 / no-limit-sao / ctu-info=0 / no-lowpass-dct / refine-mv-type=0 / copy-pic=1 / max-ausize-factor=1.0 / no-dynamic-refine / no-single-sei
    Язык                                     : English
    Default                                  : Да
    Forced                                   : Нет
    Цветовой диапазон                        : Limited
    Основные цвета                           : BT.709
    Характеристики трансфера                 : BT.709
    Коэффициенты матрицы                     : BT.709

    Аудио #1
    Идентификатор                            : 2
    Формат                                   : AC-3
    Формат/Информация                        : Audio Coding 3
    Идентификатор кодека                     : A_AC3
    Продолжительность                        : 1 ч. 22 м.
    Вид битрейта                             : Постоянный
    Битрейт                                  : 192 Кбит/сек
    Каналы                                   : 2 канала
    Расположение каналов                     : Front: L R
    Частота                                  : 48,0 КГц
    Частота кадров                           : 31,250 кадров/сек (1536 SPF)
    Битовая глубина                          : 16 бит
    Метод сжатия                             : С потерями
    Размер потока                            : 113 Мбайт (3%)
    Заголовок                                : AVO Михалёв Алексей Михайлович [1944—1994]
    Язык                                     : Russian
    ServiceKind/                       : Complete Main
    Default                                  : Да
    Forced                                   : Нет

    Аудио #2
    Идентификатор                            : 3
    Формат                                   : AC-3
    Формат/Информация                        : Audio Coding 3
    Идентификатор кодека                     : A_AC3
    Продолжительность                        : 1 ч. 22 м.
    Вид битрейта                             : Постоянный
    Битрейт                                  : 192 Кбит/сек
    Каналы                                   : 2 канала
    Расположение каналов                     : Front: L R
    Частота                                  : 48,0 КГц
    Частота кадров                           : 31,250 кадров/сек (1536 SPF)
    Битовая глубина                          : 16 бит
    Метод сжатия                             : С потерями
    Размер потока                            : 113 Мбайт (3%)
    Заголовок                                : AVO Володарский Леонид Вениаминович
    Язык                                     : Russian
    ServiceKind/                      : Complete Main
    Default                                  : Нет
    Forced                                   : Нет

    Аудио #3
    Идентификатор                            : 4
    Формат                                   : AC-3
    Формат/Информация                        : Audio Coding 3
    Идентификатор кодека                     : A_AC3
    Продолжительность                        : 1 ч. 22 м.
    Вид битрейта                             : Постоянный
    Битрейт                                  : 192 Кбит/сек
    Каналы                                   : 2 канала
    Расположение каналов                     : Front: L R
    Частота                                  : 48,0 КГц
    Частота кадров                           : 31,250 кадров/сек (1536 SPF)
    Битовая глубина                          : 16 бит
    Метод сжатия                             : С потерями
    Размер потока                            : 113 Мбайт (3%)
    Заголовок                                : AVO Горчаков Василий Овидиевич
    Язык                                     : Russian
    ServiceKind/                       : Complete Main
    Default                                  : Нет
    Forced                                   : Нет

    Аудио #4
    Идентификатор                            : 5
    Формат                                   : AC-3
    Формат/Информация                        : Audio Coding 3
    Идентификатор кодека                     : A_AC3
    Продолжительность                        : 1 ч. 22 м.
    Вид битрейта                             : Постоянный
    Битрейт                                  : 192 Кбит/сек
    Каналы                                   : 2 канала
    Расположение каналов                     : Front: L R
    Частота                                  : 48,0 КГц
    Частота кадров                           : 31,250 кадров/сек (1536 SPF)
    Битовая глубина                          : 16 бит
    Метод сжатия                             : С потерями
    Размер потока                            : 113 Мбайт (3%)
    Заголовок                                : AVO Котов Вячеслав Олегович (mupoxa)
    Язык                                     : Russian
    ServiceKind/                       : Complete Main
    Default                                  : Нет
    Forced                                   : Нет

    Аудио #5
    Идентификатор                            : 6
    Формат                                   : AC-3
    Формат/Информация                        : Audio Coding 3
    Идентификатор кодека                     : A_AC3
    Продолжительность                        : 1 ч. 22 м.
    Вид битрейта                             : Постоянный
    Битрейт                                  : 192 Кбит/сек
    Каналы                                   : 2 канала
    Расположение каналов                     : Front: L R
    Частота                                  : 48,0 КГц
    Частота кадров                           : 31,250 кадров/сек (1536 SPF)
    Битовая глубина                          : 16 бит
    Метод сжатия                             : С потерями
    Размер потока                            : 113 Мбайт (3%)
    Заголовок                                : MVO НТВ / РТР
    Язык                                     : Russian
    ServiceKind/                       : Complete Main
    Default                                  : Нет
    Forced                                   : Нет

    Аудио #6
    Идентификатор                            : 7
    Формат                                   : AC-3
    Формат/Информация                        : Audio Coding 3
    Идентификатор кодека                     : A_AC3
    Продолжительность                        : 1 ч. 22 м.
    Вид битрейта                             : Постоянный
    Битрейт                                  : 192 Кбит/сек
    Каналы                                   : 2 канала
    Расположение каналов                     : Front: L R
    Частота                                  : 48,0 КГц
    Частота кадров                           : 31,250 кадров/сек (1536 SPF)
    Битовая глубина                          : 16 бит
    Метод сжатия                             : С потерями
    Размер потока                            : 113 Мбайт (3%)
    Заголовок                                : MVO ТНТ
    Язык                                     : Russian
    ServiceKind/                      : Complete Main
    Default                                  : Нет
    Forced                                   : Нет

    Аудио #7
    Идентификатор                            : 8
    Формат                                   : AC-3
    Формат/Информация                        : Audio Coding 3
    Идентификатор кодека                     : A_AC3
    Продолжительность                        : 1 ч. 22 м.
    Вид битрейта                             : Постоянный
    Битрейт                                  : 192 Кбит/сек
    Каналы                                   : 2 канала
    Расположение каналов                     : Front: L R
    Частота                                  : 48,0 КГц
    Частота кадров                           : 31,250 кадров/сек (1536 SPF)
    Битовая глубина                          : 16 бит
    Метод сжатия                             : С потерями
    Размер потока                            : 113 Мбайт (3%)
    Заголовок                                : MVO ТВ3
    Язык                                     : Russian
    ServiceKind/                       : Complete Main
    Default                                  : Нет
    Forced                                   : Нет

    Меню
    00:00:00.000                             : :Chapter 1
    00:05:00.000                             : :Chapter 2
    00:10:00.000                             : :Chapter 3
    00:15:00.000                             : :Chapter 4
    00:20:00.000                             : :Chapter 5
    00:25:00.000                             : :Chapter 6
    00:30:00.000                             : :Chapter 7
    00:35:00.000                             : :Chapter 8
    00:40:00.000                             : :Chapter 9
    00:45:00.000                             : :Chapter 10
    00:50:00.000                             : :Chapter 11
    00:55:00.000                             : :Chapter 12
    01:00:00.000                             : :Chapter 13
    01:05:00.000                             : :Chapter 14
    01:10:00.000                             : :Chapter 15
    01:15:00.000                             : :Chapter 16
    01:20:00.000                             : :Chapter 17Свернуть


    [img]https://c.radikal.ru/c08/1811/31/5e36c302e3dc.png[/img][img]https://c.radikal.ru/c07/1811/3d/d367ae6cbb49.png[/img][img]https://c.radikal.ru/c31/1811/2f/ee15787f2343.png[/img][img]https://c.radikal.ru/c20/1811/2e/534438a004d0.png[/img]
    Похожие раздачи Искать похожие
    Инструкция по скачиванию
     1  Качаем uTorrent версии 2.0 и выше
     2  После установки, жмем выше под постером на ссылку Скачать [MediaGet] или Скачать .torrent
     3  Открываем скачанный файл через соответствующий клиент: MediaGet или uTorrent
     4  Ждем пока подключатся участники
     5  Качаем
    Комментарии о  Заряженное оружие 1 / Loaded Weapon 1 | WEBRip-HEVC 1080p 
    Ближайшее в кино
    Вверх