• Игры для PS4
  • Игры для PS3
  • Игры для XBOX360
  • Игры для PC
  • Игры для PS2
  • Игры для PSP
  • Для телефонов
  • Музыка
  • Книги / Журналы
  • Обои
  • Опрос
    Удобен ли сайт в использовании?
      0
    • Очень удобен, все понятно1,1,false,300,full
    • Удобен1,2,false,300,full
    • Средне1,3,false,300,full
    • Неудобен, трудно ориентироваться1,4,false,300,full
    • Совсем неудобен1,5,false,300,full
    Статистика
    Всего онлайн -
    Гостей -
    Пользователей -
    Короли трекера
    Благодарности () Закрыть
    Год выхода:  1991
    Страна: США, Brooksfilms, MGM-Pathe Communications Co.
    Жанр:  Комедия
    Продолжительность: 01:32:07
    Перевод: Профессиональный многоголосый, авторский

    Режиссер: Мэл Брукс
    В главных ролях: Мэл Брукс, Лесли Энн Уоррен, Джеффри Тэмбор, Стюарт Пэнкин, Ховард Моррис, Руди Де Лука, Тедди Уилсон, Майкл Инсайн, Мэттью Фэйзон

    Описание: Бедные мечтают о богатстве, а миллионеры, как явствует из многочисленных американских фильмов, не прочь окунуться в нищету, грязь и вонючее  . Мэл Брукс играет одного из таких богатеев, который заключает пари, что сможет целый месяц просуществовать среди отбросов общества, не имея в начале этого социального эксперимента ни цента в кармане.

    Качество: BDRip 1080p
    Видео: HEVC/H.265, 1920x1038, ~7360 Kbps
    Аудио 1: AC3, 2 ch, 384 Kbps - AVO, (Михалёв)
    Аудио 2: AC3, 2 ch, 384 Kbps - AVO, (Котов)
    Аудио 3: AC3, 6 ch, 384 Kbps - MVO 1
    Аудио 4: AC3, 2 ch, 192 Kbps - MVO 2
    Субтитры: Нет

    [img]https://d.radikal.ru/d04/1810/26/868b0347e583.gif[/img]

    Mediainfo
    Общее
    Уникальный идентификатор                 : 237111436885205179122356163416326084455 (0xB262006BD5109497967046A8DCA31767)
    Полное имя                               : F:РАЗДАЧИЖИЗНЬ ДЕРЬМО.1991.BDRip1080p.HEVC.mkv
    Формат                                   : Matroska
    Версия формата                           : Version 4 / Version 2
    Размер файла                             : 5,60 Гбайт
    Продолжительность                        : 1 ч. 32 м.
    Общий поток                              : 8705 Кбит/сек
    Дата кодирования                         : UTC 2018-11-30 18:57:53
    Программа кодирования                    : mkvmerge v28.0.0 ("Voice In My Head") 64-bit
    Библиотека кодирования                   : libebml v1.3.6 + libmatroska v1.4.9 / Lavf57.71.100
    Обложка                                  : Yes
    Attachments                              : cover.jpg
    ENCODING_INFO                            : MATROSKA,WEBM > MKV / H264 > X265 CRF 18.0 Placebo / DTS-HD MA > AC3 CBR 384kbps / DTS-HD MA > AC3 CBR 384kbps / AC3 > AC3 CBR 384kbps / AC3 > COPY Безопасное

    Видео
    Идентификатор                            : 1
    Формат                                   : HEVC
    Формат/Информация                        : High Efficiency Video Coding
    Профиль формата                          : Main 10@L5.1@High
    Идентификатор кодека                     : V_MPEGH/ISO/HEVC
    Продолжительность                        : 1 ч. 32 м.
    Битрейт                                  : 7360 Кбит/сек
    Ширина                                   : 1920 пикселей
    Высота                                   : 1038 пикселей
    Соотношение сторон                       : 1,85:1
    Режим частоты кадров                     : Постоянный
    Частота кадров                           : 23,976 (24000/1001) кадра/сек
    Цветовое пространство                    : YUV
    Субдискретизация насыщенности            : 4:2:0
    Битовая глубина                          : 10 бит
    Бит/(Пиксели*Кадры)                      : 0.154
    Размер потока                            : 4,74 Гбайт (85%)
    Библиотека кодирования                   : x265 2.8+74-fd517ae68f93:[Windows][GCC 7.3.0][64 bit] 10bit
    Настройки программы                      : cpuid=1049583 / frame-threads=9 / numa-pools=8 / wpp / no-pmode / no-pme / no-psnr / no-ssim / log-level=3 / input-csp=1 / input-res=1920x1038 / interlace=0 / total-frames=0 / level-idc=51 / high-tier=1 / uhd-bd=0 / ref=5 / allow-non-conformance / no-repeat-headers / annexb / no-aud / no-hrd / info / hash=0 / no-temporal-layers / open-gop / min-keyint=24 / keyint=240 / gop-lookahead=0 / bframes=8 / b-adapt=2 / b-pyramid / bframe-bias=0 / rc-lookahead=60 / lookahead-slices=6 / scenecut=40 / radl=0 / no-intra-refresh / ctu=64 / min-cu-size=8 / no-rect / no-amp / max-tu-size=32 / tu-inter-depth=1 / tu-intra-depth=1 / limit-tu=0 / rdoq-level=0 / dynamic-rd=0.00 / no-ssim-rd / signhide / no-tskip / nr-intra=0 / nr-inter=0 / no-constrained-intra / strong-intra-smoothing / max-merge=2 / limit-refs=3 / no-limit-modes / me=3 / subme=7 / merange=92 / temporal-mvp / weightp / weightb / no-analyze-src-pics / deblock=-3:-3 / sao / no-sao-non-deblock / rd=3 / no-early-skip / rskip / no-fast-intra / no-tskip-fast / no-cu-lossless / no-b-intra / no-splitrd-skip / rdpenalty=0 / psy-rd=2.00 / psy-rdoq=0.00 / no-rd-refine / no-lossless / cbqpoffs=0 / crqpoffs=0 / rc=crf / crf=18.0 / qcomp=0.60 / qpstep=4 / stats-write=0 / stats-read=0 / vbv-maxrate=160000 / vbv-bufsize=160000 / vbv-init=0.9 / crf-max=18.0 / crf-min=0.0 / ipratio=1.40 / pbratio=1.30 / aq-mode=1 / aq-strength=1.00 / cutree / zone-count=0 / no-strict-cbr / qg-size=32 / no-rc-grain / qpmax=69 / qpmin=0 / no-const-vbv / sar=1 / overscan=0 / videoformat=5 / range=0 / colorprim=1 / transfer=1 / colormatrix=1 / chromaloc=0 / display-window=0 / max-cll=0,0 / min-luma=0 / max-luma=1023 / log2-max-poc-lsb=8 / vui-timing-info / vui-hrd-info / slices=1 / no-opt-qp-pps / no-opt-ref-list-length-pps / no-multi-pass-opt-rps / scenecut-bias=0.05 / no-opt-cu-delta-qp / no-aq-motion / no-hdr / no-hdr-opt / no-dhdr10-opt / no-idr-recovery-sei / analysis-reuse-level=5 / scale-factor=0 / refine-intra=0 / refine-inter=0 / refine-mv=0 / no-limit-sao / ctu-info=0 / no-lowpass-dct / refine-mv-type=0 / copy-pic=1 / max-ausize-factor=1.0 / no-dynamic-refine / no-single-sei
    Язык                                     : English
    Default                                  : Да
    Forced                                   : Нет
    Цветовой диапазон                        : Limited
    Основные цвета                           : BT.709
    Характеристики трансфера                 : BT.709
    Коэффициенты матрицы                     : BT.709

    Аудио #1
    Идентификатор                            : 2
    Формат                                   : AC-3
    Формат/Информация                        : Audio Coding 3
    Идентификатор кодека                     : A_AC3
    Продолжительность                        : 1 ч. 32 м.
    Вид битрейта                             : Постоянный
    Битрейт                                  : 384 Кбит/сек
    Каналы                                   : 2 канала
    Расположение каналов                     : Front: L R
    Частота                                  : 48,0 КГц
    Частота кадров                           : 31,250 кадров/сек (1536 SPF)
    Битовая глубина                          : 16 бит
    Метод сжатия                             : С потерями
    Размер потока                            : 253 Мбайт (4%)
    Заголовок                                : AVO А.Михалёв
    Язык                                     : Russian
    ServiceKind/                      : Complete Main
    Default                                  : Да
    Forced                                   : Да

    Аудио #2
    Идентификатор                            : 3
    Формат                                   : AC-3
    Формат/Информация                        : Audio Coding 3
    Идентификатор кодека                     : A_AC3
    Продолжительность                        : 1 ч. 32 м.
    Вид битрейта                             : Постоянный
    Битрейт                                  : 384 Кбит/сек
    Каналы                                   : 2 канала
    Расположение каналов                     : Front: L R
    Частота                                  : 48,0 КГц
    Частота кадров                           : 31,250 кадров/сек (1536 SPF)
    Битовая глубина                          : 16 бит
    Метод сжатия                             : С потерями
    Размер потока                            : 253 Мбайт (4%)
    Заголовок                                : AVO В.Котов
    Язык                                     : Russian
    ServiceKind/                       : Complete Main
    Default                                  : Нет
    Forced                                   : Нет

    Аудио #3
    Идентификатор                            : 4
    Формат                                   : AC-3
    Формат/Информация                        : Audio Coding 3
    Идентификатор кодека                     : A_AC3
    Продолжительность                        : 1 ч. 31 м.
    Вид битрейта                             : Постоянный
    Битрейт                                  : 384 Кбит/сек
    Каналы                                   : 6 каналов
    Расположение каналов                     : Front: L C R, Side: L R, LFE
    Частота                                  : 48,0 КГц
    Частота кадров                           : 31,250 кадров/сек (1536 SPF)
    Битовая глубина                          : 16 бит
    Метод сжатия                             : С потерями
    Размер потока                            : 253 Мбайт (4%)
    Заголовок                                : MVO 1
    Язык                                     : Russian
    ServiceKind/                      : Complete Main
    Default                                  : Нет
    Forced                                   : Нет

    Аудио #4
    Идентификатор                            : 5
    Формат                                   : AC-3
    Формат/Информация                        : Audio Coding 3
    Идентификатор кодека                     : A_AC3
    Продолжительность                        : 1 ч. 31 м.
    Вид битрейта                             : Постоянный
    Битрейт                                  : 192 Кбит/сек
    Каналы                                   : 2 канала
    Расположение каналов                     : Front: L R
    Частота                                  : 48,0 КГц
    Частота кадров                           : 31,250 кадров/сек (1536 SPF)
    Битовая глубина                          : 16 бит
    Метод сжатия                             : С потерями
    Размер потока                            : 126 Мбайт (2%)
    Заголовок                                : MVO 2
    Язык                                     : Russian
    ServiceKind/                       : Complete Main
    Default                                  : Нет
    Forced                                   : НетСвернуть


    [img]https://c.radikal.ru/c33/1812/ac/78bef2d3ab03.png[/img][img]https://d.radikal.ru/d32/1812/f9/72b04ff4b6ce.png[/img][img]https://c.radikal.ru/c37/1812/30/5c799d4b3775.png[/img][img]https://d.radikal.ru/d03/1812/64/09a6d6c15f7d.png[/img]
    Похожие раздачи Искать похожие
    Инструкция по скачиванию
     1  Качаем uTorrent версии 2.0 и выше
     2  После установки, жмем выше под постером на ссылку Скачать [MediaGet] или Скачать .torrent
     3  Открываем скачанный файл через соответствующий клиент: MediaGet или uTorrent
     4  Ждем пока подключатся участники
     5  Качаем
    Комментарии о  Жизнь - дерьмо / Life Stinks | BDRip-HEVC 1080p 
    Ближайшее в кино
    Вверх