• Игры для PS4
  • Игры для PS3
  • Игры для XBOX360
  • Игры для PC
  • Игры для PS2
  • Игры для PSP
  • Для телефонов
  • Музыка
  • Книги / Журналы
  • Обои
  • Опрос
    Откуда Вы о нас узнали?
      0
    • От знакомых2,1,false,300,full
    • Из социальных сетей2,2,false,300,full
    • Из поисковых систем2,3,false,300,full
    • Другое2,4,false,300,full
    Статистика
    Всего онлайн -
    Гостей -
    Пользователей -
    Короли трекера
    Благодарности () Закрыть
    Год выхода:  2018
    Страна: США
    Жанр:  Ужасы, Триллер, Детектив
    Продолжительность: 01:36:34
    Перевод: Дублированный  (iTunes)

    Режиссер: Корин Харди
    В главных ролях: Демиан Бишир, Таисса Фармига, Йонас Блоке, Бонни Ааронс, Ингрид Бису, Шарлотта Хоуп, Сандра Телес

    Описание: Когда в уединенном монастыре в Румынии совершает самоубийство молодая монахиня, расследовать происшествие Ватикан отправляет священника с туманным прошлым и послушницу на пороге невозвратных обетов. Рискуя не только жизнями, но и верой, и даже своими душами, они сталкиваются со злобной силой, принявшей облик демонической монахини, а монастырь становится полем ужасающей битвы между живыми и проклятыми.

    Качество: BDRip 1080p
    Видео: HEVC/H.265, 1920x800, ~4794 Kbps
    Аудио 1: AC3, 6 ch, 384 Kbps - Дублированный
    Аудио 2: AC3, 6 ch, 448 Kbps - Английский
    Субтитры: Русские (форсированные, полные), английские

    [img]https://d.radikal.ru/d04/1810/26/868b0347e583.gif[/img]

    Mediainfo
    Общее
    Уникальный идентификатор                 : 186765492154562957963334016774875225676 (0x8C81B9B348131270C2C370009AC19E4C)
    Полное имя                               : F:РАЗДАЧИПроклятие монахини. 2018. 1080p. HEVC. 10bit..mkv
    Формат                                   : Matroska
    Версия формата                           : Version 4 / Version 2
    Размер файла                             : 3,80 Гбайт
    Продолжительность                        : 1 ч. 36 м.
    Общий поток                              : 5628 Кбит/сек
    Дата кодирования                         : UTC 2018-12-02 07:40:56
    Программа кодирования                    : mkvmerge v28.2.0 ("The Awakening") 64-bit
    Библиотека кодирования                   : libebml v1.3.6 + libmatroska v1.4.9
    Обложка                                  : Yes
    Attachments                              : cover2.jpg

    Видео
    Идентификатор                            : 1
    Формат                                   : HEVC
    Формат/Информация                        : High Efficiency Video Coding
    Профиль формата                          : Main 10@L4@Main
    Идентификатор кодека                     : V_MPEGH/ISO/HEVC
    Продолжительность                        : 1 ч. 36 м.
    Битрейт                                  : 4794 Кбит/сек
    Ширина                                   : 1920 пикселей
    Высота                                   : 800 пикселей
    Соотношение сторон                       : 2,40:1
    Режим частоты кадров                     : Постоянный
    Частота кадров                           : 23,976 (24000/1001) кадра/сек
    Частота кадров в оригинале               : 23,976 (23976/1000) кадра/сек
    Цветовое пространство                    : YUV
    Субдискретизация насыщенности            : 4:2:0
    Битовая глубина                          : 10 бит
    Бит/(Пиксели*Кадры)                      : 0.130
    Размер потока                            : 3,23 Гбайт (85%)
    Библиотека кодирования                   : x265 2.7+15-b9f5b5d7bf95:[Windows][MSVC 1800][64 bit] 10bit
    Настройки программы                      : cpuid=1173503 / frame-threads=3 / numa-pools=8 / wpp / no-pmode / no-pme / no-psnr / no-ssim / log-level=2 / input-csp=1 / input-res=1920x800 / interlace=0 / total-frames=0 / level-idc=0 / high-tier=1 / uhd-bd=0 / ref=6 / no-allow-non-conformance / repeat-headers / annexb / no-aud / no-hrd / info / hash=0 / no-temporal-layers / no-open-gop / min-keyint=23 / keyint=250 / gop-lookahead=0 / bframes=8 / b-adapt=2 / b-pyramid / bframe-bias=0 / rc-lookahead=24 / lookahead-slices=5 / scenecut=40 / radl=0 / no-intra-refresh / ctu=64 / min-cu-size=8 / no-rect / no-amp / max-tu-size=32 / tu-inter-depth=1 / tu-intra-depth=1 / limit-tu=0 / rdoq-level=0 / dynamic-rd=0.00 / no-ssim-rd / signhide / no-tskip / nr-intra=0 / nr-inter=0 / no-constrained-intra / no-strong-intra-smoothing / max-merge=2 / limit-refs=3 / no-limit-modes / me=2 / subme=6 / merange=48 / temporal-mvp / weightp / weightb / no-analyze-src-pics / deblock=0:0 / sao / no-sao-non-deblock / rd=4 / no-early-skip / rskip / no-fast-intra / no-tskip-fast / no-cu-lossless / no-b-intra / no-splitrd-skip / rdpenalty=0 / psy-rd=2.00 / psy-rdoq=0.00 / no-rd-refine / no-lossless / cbqpoffs=0 / crqpoffs=0 / rc=crf / crf=16.0 / qcomp=0.60 / qpstep=4 / stats-write=0 / stats-read=0 / ipratio=1.40 / pbratio=1.30 / aq-mode=3 / aq-strength=1.00 / cutree / zone-count=0 / no-strict-cbr / qg-size=32 / no-rc-grain / qpmax=69 / qpmin=0 / no-const-vbv / sar=0 / overscan=0 / videoformat=5 / range=0 / colorprim=2 / transfer=2 / colormatrix=2 / chromaloc=0 / display-window=0 / max-cll=0,0 / min-luma=0 / max-luma=1023 / log2-max-poc-lsb=8 / vui-timing-info / vui-hrd-info / slices=1 / no-opt-qp-pps / no-opt-ref-list-length-pps / no-multi-pass-opt-rps / scenecut-bias=0.05 / no-opt-cu-delta-qp / aq-motion / no-hdr / no-hdr-opt / no-dhdr10-opt / no-idr-recovery-sei / analysis-reuse-level=5 / scale-factor=0 / refine-intra=0 / refine-inter=0 / refine-mv=0 / no-limit-sao / ctu-info=0 / no-lowpass-dct / refine-mv-type=0 / copy-pic=1 / max-ausize-factor=1.0 / no-dynamic-refine
    Default                                  : Да
    Forced                                   : Нет

    Аудио #1
    Идентификатор                            : 2
    Формат                                   : AC-3
    Формат/Информация                        : Audio Coding 3
    Идентификатор кодека                     : A_AC3
    Продолжительность                        : 1 ч. 36 м.
    Вид битрейта                             : Постоянный
    Битрейт                                  : 384 Кбит/сек
    Каналы                                   : 6 каналов
    Расположение каналов                     : Front: L C R, Side: L R, LFE
    Частота                                  : 48,0 КГц
    Частота кадров                           : 31,250 кадров/сек (1536 SPF)
    Битовая глубина                          : 16 бит
    Метод сжатия                             : С потерями
    Размер потока                            : 265 Мбайт (7%)
    Заголовок                                : iTunes
    Язык                                     : Russian
    ServiceKind/                      : Complete Main
    Default                                  : Да
    Forced                                   : Да

    Аудио #2
    Идентификатор                            : 3
    Формат                                   : AC-3
    Формат/Информация                        : Audio Coding 3
    Идентификатор кодека                     : A_AC3
    Продолжительность                        : 1 ч. 36 м.
    Вид битрейта                             : Постоянный
    Битрейт                                  : 448 Кбит/сек
    Каналы                                   : 6 каналов
    Расположение каналов                     : Front: L C R, Side: L R, LFE
    Частота                                  : 48,0 КГц
    Частота кадров                           : 31,250 кадров/сек (1536 SPF)
    Битовая глубина                          : 16 бит
    Метод сжатия                             : С потерями
    Размер потока                            : 309 Мбайт (8%)
    Заголовок                                : Original
    Язык                                     : English
    ServiceKind/                       : Complete Main
    Default                                  : Нет
    Forced                                   : Нет

    Текст #1
    Идентификатор                            : 4
    Формат                                   : UTF-8
    Идентификатор кодека                     : S_TEXT/UTF8
    Идентификатор кодека/Информация          : UTF-8 Plain Text
    Продолжительность                        : 1 ч. 29 м.
    Битрейт                                  : 0 бит/сек
    ElementCount                             : 19
    Размер потока                            : 632 байт (0%)
    Заголовок                                : Forced
    Язык                                     : Russian
    Default                                  : Да
    Forced                                   : Да

    Текст #2
    Идентификатор                            : 5
    Формат                                   : UTF-8
    Идентификатор кодека                     : S_TEXT/UTF8
    Идентификатор кодека/Информация          : UTF-8 Plain Text
    Продолжительность                        : 1 ч. 35 м.
    Битрейт                                  : 51 бит/сек
    ElementCount                             : 644
    Размер потока                            : 35,7 Кбайт (0%)
    Заголовок                                : Full
    Язык                                     : Russian
    Default                                  : Нет
    Forced                                   : Нет

    Текст #3
    Идентификатор                            : 6
    Формат                                   : UTF-8
    Идентификатор кодека                     : S_TEXT/UTF8
    Идентификатор кодека/Информация          : UTF-8 Plain Text
    Продолжительность                        : 1 ч. 30 м.
    Битрейт                                  : 30 бит/сек
    ElementCount                             : 639
    Размер потока                            : 20,4 Кбайт (0%)
    Заголовок                                : Full
    Язык                                     : English
    Default                                  : Нет
    Forced                                   : Нет

    Меню
    00:00:00.000                             : :00:00:00.000
    00:08:42.772                             : :00:08:42.772
    00:17:55.074                             : :00:17:55.074
    00:29:17.506                             : :00:29:17.506
    00:38:05.033                             : :00:38:05.033
    00:48:49.802                             : :00:48:49.802
    00:58:49.192                             : :00:58:49.192
    01:09:16.944                             : :01:09:16.944
    01:18:14.565                             : :01:18:14.565
    01:24:18.637                             : :01:24:18.637
    01:32:30.295                             : :01:32:30.295Свернуть


    [img]https://d.radikal.ru/d22/1812/05/45a4c7c7ea09.png[/img][img]https://a.radikal.ru/a02/1812/56/639d88370245.png[/img][img]https://a.radikal.ru/a14/1812/9a/1ac2c97e43a7.png[/img][img]https://b.radikal.ru/b01/1812/0c/99b619f6c466.png[/img]
    Похожие раздачи Искать похожие
    Инструкция по скачиванию
     1  Качаем uTorrent версии 2.0 и выше
     2  После установки, жмем выше под постером на ссылку Скачать [MediaGet] или Скачать .torrent
     3  Открываем скачанный файл через соответствующий клиент: MediaGet или uTorrent
     4  Ждем пока подключатся участники
     5  Качаем
    Комментарии о  Проклятие монахини / The Nun | BDRip-HEVC 1080p 
    Ближайшее в кино
    Вверх