• Игры для PS4
  • Игры для PS3
  • Игры для XBOX360
  • Игры для PC
  • Игры для PS2
  • Игры для PSP
  • Для телефонов
  • Музыка
  • Книги / Журналы
  • Обои
  • Опрос
    Удобен ли сайт в использовании?
      0
    • Очень удобен, все понятно1,1,false,300,full
    • Удобен1,2,false,300,full
    • Средне1,3,false,300,full
    • Неудобен, трудно ориентироваться1,4,false,300,full
    • Совсем неудобен1,5,false,300,full
    Статистика
    Всего онлайн -
    Гостей -
    Пользователей -
    Короли трекера
    Благодарности () Закрыть
    Информация о фильме
    Название: Александр
    Оригинальное название: Alexander
    Год выхода: 2004
    Жанр: боевик, драма, мелодрама, приключения
    Режиссер: Оливер Стоун
    В ролях: Колин Фаррелл, Анджелина Джоли, Вэл Килмер, Энтони Хопкинс, Джаред Лето, Розарио Доусон, Джонатан Риз Майерс, Кристофер Пламмер, Дэвид Беделла, Джесси Камм

    О фильме:
    Спустя 40 лет после гибели Александра пожилой Птолемей, один из ближайших соратников Македонского, ставший после его смерти наместником Египта, решает рассказать и записать историю побед великого полководца. В течение восьми лет войско Александра Великого двигалось на Восток, к берегам мирового Океана.
    Покорив Западную и Центральную Азию, Македонский первым ступил на загадочную и таинственную землю древней Индии. Об этом он мечтал ещё в детстве, слушая мифы о Трое, подвигах Геракла и Ахиллеса…

    [img]http://imdb.snick.ru/ratefor/02/tt0346491.png[/img]

    Страна: Германия, США, Нидерланды, Франция, Великобритания, Италия
    Студия: Warner Bros., Intermedia Films, Pacifica Film
    Продолжительность: 03:33:36
    Перевод: Авторский (одноголосый, закадровый) Немахов Юрий + Оригинал

    Файл
    Кодек: x.264
    Качество: HDRip-AVC | исх. BDRip 1080p
    Видео: h264 / 2400 kbps / 1024x426 / 23,976 fps
    Аудио 1: 48 kHz / 384 kbps | Немахов Юрий
    Аудио 2: 48 kHz / 384 kbps | Оригинал
    Субтитры: Русские

    log

    x264 [info]: frame I:4560  Avg QP:15.64  size: 53904
    x264 [info]: frame P:39228 Avg QP:17.59  size: 27020
    x264 [info]: frame B:263508 Avg QP:20.36  size:  9632
    x264 [info]: consecutive B-frames:  5.1%  0.3%  0.4%  0.5%  0.7%  0.7%  0.8%  1.6%  1.1%  1.1% 87.8%
    x264 [info]: mb I  I16..4:  5.3% 79.3% 15.5%
    x264 [info]: mb P  I16..4:  1.9% 20.5%  2.8%  P16..4: 26.0% 34.4% 11.5%  0.0%  0.0%    skip: 2.8%
    x264 [info]: mb B  I16..4:  0.3%  2.4%  0.4%  B16..8: 31.5% 26.8%  5.3%  direct: 7.4%  skip:25.8%  L0:42.5% L1:42.5% BI:15.0%
    x264 [info]: 8x8 transform intra:79.9% inter:63.4%
    x264 [info]: direct mvs  spatial:98.9% temporal:1.1%
    x264 [info]: coded y,uvDC,uvAC intra: 86.7% 88.4% 63.4% inter: 30.0% 26.4% 7.4%
    x264 [info]: i16 v,h,dc,p: 40% 11%  4% 45%
    x264 [info]: i8 v,h,dc,ddl,ddr,vr,hd,vl,hu:  8%  6%  6% 10% 15% 15% 14% 13% 13%
    x264 [info]: i4 v,h,dc,ddl,ddr,vr,hd,vl,hu: 11%  5%  6%  9% 16% 15% 13% 12% 12%
    x264 [info]: i8c dc,h,v,p: 39% 20% 19% 21%
    x264 [info]: Weighted P-Frames: Y:6.2% UV:3.1%
    x264 [info]: ref P L0: 50.8%  9.2% 17.5%  6.7%  4.8%  3.1%  2.6%  1.5%  1.3%  1.0%  1.0%  0.3%  0.0%
    x264 [info]: ref B L0: 85.0%  7.7%  3.0%  1.5%  1.0%  0.7%  0.5%  0.3%  0.2%  0.1%
    x264 [info]: ref B L1: 94.6%  5.4%
    x264 [info]: kb/s:2399.31
    Свернуть


    MediaInfo

    Общее
    Уникальный идентификатор                 : 221788085284973275680337622278570510662 (0xA6DAD4DB9A2B567385D1238CC2F40946)
    Полное имя                               : E:TestAlexander.2004.FinalCut.HDRip-AVC.by.Alukard14.mkv
    Формат                                   : Matroska
    Версия формата                           : Version 2
    Размер файла                             : 4,73 Гбайт
    Продолжительность                        : 3 ч. 33 м.
    Общий поток                              : 3168 Кбит/сек
    Дата кодирования                         : UTC 2018-12-02 10:09:53
    Программа кодирования                    : mkvmerge v4.1.1 ("Bouncin" Back") сборка от Jul  3 2010 22:54:08
    Библиотека кодирования                   : libebml v1.0.0 + libmatroska v1.0.0

    Видео
    Идентификатор                            : 1
    Формат                                   : AVC
    Формат/Информация                        : Advanced Video Codec
    Профиль формата                          : High@L4.1
    Настройки формата                        : CABAC / 11 Ref Frames
    Параметр CABAC формата                   : Да
    Параметр RefFrames формата               : 11 кадров
    Идентификатор кодека                     : V_MPEG4/ISO/AVC
    Продолжительность                        : 3 ч. 33 м.
    Битрейт                                  : 2400 Кбит/сек
    Ширина                                   : 1024 пикселя
    Высота                                   : 426 пикселей
    Соотношение сторон                       : 2,40:1
    Режим частоты кадров                     : Постоянный
    Частота кадров                           : 23,976 кадра/сек
    Цветовое пространство                    : YUV
    Субдискретизация насыщенности            : 4:2:0
    Битовая глубина                          : 8 бит
    Тип развёртки                            : Прогрессивная
    Бит/(Пиксели*Кадры)                      : 0.229
    Размер потока                            : 3,49 Гбайт (74%)
    Библиотека кодирования                   : x264 core 148 r2638 7599210
    Настройки программы                      : cabac=1 / ref=11 / deblock=1:-3:-3 / analyse=0x3:0x113 / me=umh / subme=11 / psy=1 / psy_rd=1.00:0.00 / mixed_ref=1 / me_range=48 / chroma_me=1 / trellis=2 / 8x8dct=1 / cqm=0 / deadzone=21,11 / fast_pskip=0 / chroma_qp_offset=-2 / threads=9 / lookahead_threads=1 / sliced_threads=0 / nr=0 / decimate=0 / interlaced=0 / bluray_compat=0 / constrained_intra=0 / bframes=10 / b_pyramid=2 / b_adapt=0 / b_bias=0 / direct=3 / weightb=1 / open_gop=0 / weightp=2 / keyint=240 / keyint_min=24 / scenecut=40 / intra_refresh=0 / rc_lookahead=40 / rc=2pass / mbtree=0 / bitrate=2400 / ratetol=1.0 / qcomp=0.60 / qpmin=0 / qpmax=69 / qpstep=2 / cplxblur=20.0 / qblur=0.5 / vbv_maxrate=14000 / vbv_bufsize=14000 / nal_hrd=none / filler=0 / ip_ratio=1.40 / pb_ratio=1.30 / aq=1:1.00
    Язык                                     : English
    Default                                  : Да
    Forced                                   : Нет

    Аудио #1
    Идентификатор                            : 2
    Формат                                   : AC-3
    Формат/Информация                        : Audio Coding 3
    Режим смешивания                         : Header stripping
    Идентификатор кодека                     : A_AC3
    Продолжительность                        : 3 ч. 33 м.
    Вид битрейта                             : Постоянный
    Битрейт                                  : 384 Кбит/сек
    Каналы                                   : 6 каналов
    Расположение каналов                     : Front: L C R, Side: L R, LFE
    Частота                                  : 48,0 КГц
    Частота кадров                           : 31,250 кадров/сек (1536 SPF)
    Битовая глубина                          : 16 бит
    Метод сжатия                             : С потерями
    Размер потока                            : 587 Мбайт (12%)
    Default                                  : Да
    Forced                                   : Нет

    Аудио #2
    Идентификатор                            : 3
    Формат                                   : AC-3
    Формат/Информация                        : Audio Coding 3
    Режим смешивания                         : Header stripping
    Идентификатор кодека                     : A_AC3
    Продолжительность                        : 3 ч. 33 м.
    Вид битрейта                             : Постоянный
    Битрейт                                  : 384 Кбит/сек
    Каналы                                   : 6 каналов
    Расположение каналов                     : Front: L C R, Side: L R, LFE
    Частота                                  : 48,0 КГц
    Частота кадров                           : 31,250 кадров/сек (1536 SPF)
    Битовая глубина                          : 16 бит
    Метод сжатия                             : С потерями
    Размер потока                            : 587 Мбайт (12%)
    Default                                  : Нет
    Forced                                   : Нет

    Текст
    Идентификатор                            : 4
    Формат                                   : UTF-8
    Идентификатор кодека                     : S_TEXT/UTF8
    Идентификатор кодека/Информация          : UTF-8 Plain Text
    Язык                                     : Russian
    Default                                  : Нет
    Forced                                   : Нет
    Свернуть


    Похожие раздачи Искать похожие
    Инструкция по скачиванию
     1  Качаем uTorrent версии 2.0 и выше
     2  После установки, жмем выше под постером на ссылку Скачать [MediaGet] или Скачать .torrent
     3  Открываем скачанный файл через соответствующий клиент: MediaGet или uTorrent
     4  Ждем пока подключатся участники
     5  Качаем
    Комментарии о  Александр / Alexander | HDRip-AVC 
    Ближайшее в кино
    Вверх