• Игры для PS4
  • Игры для PS3
  • Игры для XBOX360
  • Игры для PC
  • Игры для PS2
  • Игры для PSP
  • Для телефонов
  • Музыка
  • Книги / Журналы
  • Обои
  • Опрос
    Откуда Вы о нас узнали?
      0
    • От знакомых2,1,false,300,full
    • Из социальных сетей2,2,false,300,full
    • Из поисковых систем2,3,false,300,full
    • Другое2,4,false,300,full
    Статистика
    Всего онлайн -
    Гостей -
    Пользователей -
    Короли трекера
    Благодарности () Закрыть
    Пианист / The Pianist
    «Music was his passion. Survival was his masterpiece.»

    Год выхода: 2002
    Страна: Германия, Франция, Великобритания, Польша
    Студия: Agencja Produkcji Filmowej, Beverly Detroit, Canal+ Polska, Canal+
    Жанр:  Драма, военный
    Продолжительность: 02:28:53
    Перевод: Дублированный, Профессиональный многоголосый, авторский

    Режиссер: Роман Полански
    В ролях: Эдриан Броуди, Эмилия Фокс, Томас Кречманн, Михал Жебровский, Эд Стоппард, Морин Липмен,
    Фрэнк Финлей, Джессика Кейт Майер, Джулия Рейнер, Ричард Райдингс, Рой Смайлс, Пол Брэдли, Даниэль Кальтаджироне,
    Анджей Блюменфельд, Джон Беннет, Сирил Шэпс, Рут Плэтт, Ронан Вайберт, Кжиштоф Печиньски,
    Катажина Фигура, Збигнев Замаховский, Удо Крошвальд, Иоанна Бродзик

    О фильме: Фильм повествует о жизни Варшавского гетто во время второй мировой войны.
    В основу положена реальная история польского музыканта Владислава Шпильмана, еврея по национальности.
    Все начинается в 1939 году со взятия Варшавы немецкими войсками.
    Всем евреям приказано носить на руках белые повязки с изображением звезды Давида.
    После массовых расстрелов в городе строится стена, за которую выселяют еврейское население.
    За стеной оказывается и Шпильман со своей семьей.
    Вынужденный жить в Варшавском гетто, он сполна познает вкус унижений, страдания и борьбы.
    Один из офицеров отступающей немецкой армии обнаруживает его среди руин разрушенного города и помогает ему выжить.



    Кодек: х264
    Качество: BDRip 1080p
    Видео: MPEG-4 AVC, 12871 Кбит/с, 1920x1036, 23.976 fps
    Аудио 1: Русский, AC-3, 48.0 KHz, 6 ch, 384 Кбит/с, Дублированный
    Аудио 2: Русский, AC-3, 48.0 KHz, 6 ch, 448 Кбит/с, Дублированный (вставки многоголоски на немецкую речь)
    Аудио 3: Русский, AC-3, 48.0 KHz, 2 ch, 192 Кбит/с, Дублированный (SDI Media)
    Аудио 4: Русский, AC-3, 48.0 KHz, 6 ch, 448 Кбит/с, Профессиональный многоголосый
    Аудио 5: Русский, AC-3, 48.0 KHz, 2 ch, 192 Кбит/с, Профессиональный многоголосый (ОРТ)
    Аудио 6: Русский, AC-3, 48.0 KHz, 6 ch, 448 Кбит/с, Авторский одноголосый (Яроцкий)
    Аудио 7: Русский, AC-3, 48.0 KHz, 6 ch, 448 Кбит/с, Авторский одноголосый (Гаврилов)
    Аудио 8: Русский, AC-3, 48.0 KHz, 6 ch, 448 Кбит/с, Авторский одноголосый (Живов)
    Аудио 9: Украинский, AC-3, 48.0 KHz, 6 ch, 448 Кбит/с, Профессиональный многоголосый
    Аудио 10: Английский, AC-3, 48.0 KHz, 6 ch, 448 Кбит/с, Оригинал
    Субтитры: Русские(форс на намецкую речь, полные), украинские(форс), английские(полные)
    Главы: Есть

    Доп: Синхронизация дорожки Яроцкого спасибо MZMA

    Знаете ли Вы что....
    Эдриан Броуди сбросил 14 килограмм для роли Владека Шпильмана, сидя в течении 6 недель на диете из двух варёных яиц и зелёного чая на завтрак, цыплёнка на обед и кусочка рыбки или цыплёнка с варёными овощами на ужин. Изначально его вес составлял 73 килограмма (при росте 185 см).
    Чтобы понять, что чувствовал его герой, Броуди съехал с квартиры, продал машину и не смотрел телевизор.
    Во время съёмок фильма, в Кракове, Поланский встретил человека, который помогал его семье во время войны.
    Сцена в которой Шпильмана спасают от отправки в лагерь и говорят «Только не беги», навеяна событиями имевшими место в жизни самого Поланского.
    Это первый фильм, который получил приз Сезара как лучший фильм, в котором не было произнесено ни слова по-французски.
    Музыка, которая раздаётся в конце фильма из грузовика, разъезжающего по руинам — польский гимн. Вот почему Шпильман понимает, что он спасён.
    Владислав Шпильман, бывший узник варшавского гетто, реальный польский пианист скончался в 2000 году.
    Во время съёмок в эпизоде, где герою Броуди надо было прыгать в окно, несмотря на лежащий внизу страховочный мат, Броуди замешкался и спросил: «Кто-нибудь уже пробовал прыгать в это окно?» Все помотали головами. «Что, никто не прыгал?» — переспросил он. И тут Полански взял и сиганул в окно. Уже снизу он крикнул: «Ну вот, кто-то попробовал. Теперь твоя очередь!» Броуди прыгнул, здорово ударившись лицом и ободрав ребра.
    В сценах депортации в массовке в роли одного из детей снялся Даниэль Шпильман - внук Владислава Шпильмана, а одного из еврейских полицейских сыграл его отец и сын Владислава Анджей Шпильман.Свернуть


    ...из книги «3500 кинорецензий»
    Экзистенциальная военная драма
    Кому-то данная лента Романа Полянского кажется холодной и бесстрастной, хотя эти определения несправедливы. Скорее можно сказать, что его картина настолько объективна, насколько способен быть несубъективным человек, лично испытавший ужасы войны и Холокоста. Причём это касается не только главного героя, польского музыканта Владислава Шпильмана, который чудом сумел выжить в страшную эпоху и умер в возрасте 88 лет накануне съёмок «Пианиста» на основе его мемуаров. Ведь и Роман Полянский — пожалуй, первый из режиссёров мирового уровня, который только на исходе седьмого десятка лет своей жизни решил обратиться к тому, что знал отнюдь не понаслышке и пережил, как говорится, на собственной шкуре. Он столь же непостижимо избежал трагической участи своих родителей, сгинувших в концлагере, и, выбравшись из краковского гетто, скрывался в деревне.
    Но даже те, кто не знает фактов биографии Полянского, могли ожидать от прославленного постановщика фильмов ужаса, мистических лент и триллеров, наверно, чего-то пугающего, тревожного, нервного и будоражащего. Поэтому начало «Пианиста» поневоле представляется обычным, заурядным, лишённым какой-либо экспрессии, не говоря уже о взвинченности манеры. Несмотря на решение снимать картину в цвете (приглашённый польский оператор Павел Эдельман ранее работал с Анджеем Вайдой на фильмах «Настасья» и «Пан Тадеуш»), нарушая как бы хроникальную традицию чёрно-белого кино, заявленную тем же Вайдой в «Корчаке» и Стивеном Спилбергом в «Списке Шиндлера», Роман Полянский не сразу и словно без особых усилий добивается «будничности повествования». И вот это оказывается самым страшным! Когда изо дня в день, между делом, второпях и без какого-либо объяснения одни люди, одетые в немецкую или же в специальную униформу для «еврейских полицейских» (выясняется, что были и такие!), унижают, избивают, расстреливают других людей лишь за то, что они — евреи, это воздействует, в конечном счёте, куда сильнее, нежели преувеличенные пафосные страсти на тему тотального истребления несчастной иудейской нации.
    Да и заглавный персонаж ведёт себя не столько как непосредственный участник событий, но будто свидетель, который наблюдают чуть со стороны за всем происходящим. Он — своего рода авторский посредник, в чём-то уподоблен кинокамере, запечатлевающей на плёнку то, что попадает в её объектив. Кстати, это не раз подчёркнуто в избираемых ракурсах съёмок, когда Владислав Шпильман следит за творящимся «обыденным ужасом» через узкий проём или сквозь краешек окна, особенно в тех сценах, когда он скрывается на нелегальных квартирах.
    И тут, между прочим, впервые обнаруживается явная перекличка «Пианиста» с одним из ключевых произведений «прежнего Полянского» — а именно с «Жильцом», где режиссёр не случайно сам играл главную роль некоего кафкианского типа, постепенно сходящего с ума на съёмной квартире в весьма небогатом парижском районе. Поскольку и Шпильман, который остаётся практически в одиночестве в последней трети ленты и стремится выжить на этом свете вопреки разумным доводам, что всё равно не жилец, ибо спастись не удастся, ведь и другие погибли ни за что ни про что, он превращается словно… в Робинзона Крузо на необитаемом острове, цепляющегося за жизнь из последних сил. И в отличие от безвольного и подавленного Трелковского из «Жильца», который, прежде всего, становится жертвой собственных сомнений и подозрений по отношению к миру вокруг себя, герой «Пианиста» выживает благодаря вере в то, что не должен, вообще не вправе исчезнуть раньше положенного свыше срока. И это словами даже не высказанное убеждение даёт ему именно музыка, от которой пианист был насильно отлучён в течение нескольких лет.
    Своеобразная «пытка отсутствием музыки» точнее всего выражена в эпизоде, когда Владислав Шпильман после очень долгого перерыва впервые оказывается около пианино, но не может играть из соображений конспирации, так что вынужден лишь в воздухе перебирать пальцами, не опуская их на клавиши — зато в его мыслях (и за кадром) звучит музыка Фредерика Шопена. И спасение приходит к пианисту вовсе не тогда, когда немцы покидают Варшаву, в которую врываются советские войска, а в тот момент, когда случайно его обнаруживший немецкий капитан Вильм Хозенфельд позволяет сыграть на пианино. Остальное — не молчание, но музыка, будто вопреки финальной фразе шекспировского героя, решавшего мучительный вопрос «быть или не быть».
    Остаться жильцом на этом свете подчас трудно и почти невыполнимо, если бы человеком не владела иная миссия, заключающаяся для него в творчестве. Этим человек и жив. Так что Роман Полянский сделал фильм не об «искусстве выживания», а о выживании благодаря искусству. В конце концов, и его самого судьба чудесным образом хранила ради того, чтобы максимально реализовался этот талант в сфере кино.Сергей Кудрявцев 8.5/10Свернуть


    Награды
    Золотой орел, 2004 год
    Победитель (1):

    Лучший зарубежный фильм в российском прокате — «Союз-Видео»
    Оскар, 2003 год
    Победитель (3):

    Лучшая мужская роль (Эдриан Броуди)
    Лучший режиссер (Роман Полански)
    Лучший адаптированный сценарий
    Номинации (4):
    Лучший фильм
    Лучшая работа оператора
    Лучшие костюмы
    Лучший монтаж
    Золотой глобус, 2003 год
    Номинации (2):
    Лучший фильм (драма)
    Лучшая мужская роль (драма) (Эдриан Броуди)
    Британская академия, 2003 год
    Победитель (2):

    Лучший фильм
    Премия имени Дэвида Лина за достижения в режиссуре (Роман Полански)
    Номинации (5):
    Лучшая мужская роль (Эдриан Броуди)
    Лучший адаптированный сценарий
    Лучшая работа оператора
    Лучший звук
    Премия имени Энтони Эскуита за достижения в создании музыки к фильму
    Сезар, 2003 год
    Победитель (7):

    Лучший фильм
    Лучший актер (Эдриан Броуди)
    Лучший режиссер (Роман Полански)
    Лучшая работа оператора
    Лучший звук
    Лучший саундтрек
    Лучшие декорации
    Номинации (3):
    Лучший адаптированный или оригинальный сценарий
    Лучшие костюмы
    Лучший монтаж
    Каннский кинофестиваль, 2002 год
    Победитель (1):

    Золотая пальмовая ветвь
    Европейская киноакадемия, 2002 год
    Победитель (1):

    Лучшая операторская работа
    Номинации (3):
    Лучший фильм
    Лучший режиссер (Роман Полански)
    Приз зрительских симпатий за лучшую мужскую роль (Эдриан Броуди)Свернуть


    Скриншоты
    [screen]http://img10.lostpic.net/2018/12/01/15491910063423c06512f94972f06302.png[/screen][screen]http://img10.lostpic.net/2018/12/01/24ffc38bec4e690f01a38eaf12f34dad.png[/screen][screen]http://img10.lostpic.net/2018/12/01/effdd47e2392cb3ae10c9b27216e1309.png[/screen][screen]http://img10.lostpic.net/2018/12/01/ee615d47e7effbdec1f97e7bee6858df.png[/screen][screen]http://img10.lostpic.net/2018/12/01/0521595e13b663eade3b39576437c766.png[/screen][screen]http://img10.lostpic.net/2018/12/01/48a38ce3e502a55543e2f9e68e239371.png[/screen][screen]http://img10.lostpic.net/2018/12/01/fecfb9f7b2ad9def2c1ec121d8501ea8.png[/screen][screen]http://img10.lostpic.net/2018/12/01/2d21a5a29720efabb94172b3d671fb69.png[/screen]   Свернуть


    Инфо файл

    x264 [info]: frame I:1313  Avg QP:17.53  size:317584
    x264 [info]: frame P:49355 Avg QP:20.05  size:133308
    x264 [info]: frame B:163533 Avg QP:21.59  size: 45118

    Общее
    Уникальный идентификатор                 : 247546821410109335451093106790028387304 (0xBA3BC899F4612FA7A16B534C6F5DA3E8)
    Полное имя                               : I:коллекцияПианист 2002_BDRip 1080p_KORSAR.mkv
    Формат                                   : Matroska
    Версия формата                           : Version 2
    Размер файла                             : 17,5 Гбайт
    Продолжительность                        : 2 ч. 28 м.
    Общий поток                              : 16,8 Мбит/сек
    Название фильма                          : Пианист 2002 от mister.hats
    Дата кодирования                         : UTC 2018-12-01 18:04:02
    Программа кодирования                    : mkvmerge v5.8.0 ("No Sleep / Pillow") built on Sep  2 2012 15:37:04
    Библиотека кодирования                   : libebml v1.2.3 + libmatroska v1.3.0

    Видео
    Идентификатор                            : 1
    Формат                                   : AVC
    Формат/Информация                        : Advanced Video Codec
    Профиль формата                          : High@L4.1
    Настройки формата                        : CABAC / 4 Ref Frames
    Параметр CABAC формата                   : Да
    Параметр RefFrames формата               : 4 кадра
    Идентификатор кодека                     : V_MPEG4/ISO/AVC
    Продолжительность                        : 2 ч. 28 м.
    Битрейт                                  : 12,9 Мбит/сек
    Ширина                                   : 1920 пикселей
    Высота                                   : 1036 пикселей
    Соотношение сторон                       : 1,85:1
    Режим частоты кадров                     : Постоянный
    Частота кадров                           : 23,976 (24000/1001) кадра/сек
    Цветовое пространство                    : YUV
    Субдискретизация насыщенности            : 4:2:0
    Битовая глубина                          : 8 бит
    Тип развёртки                            : Прогрессивная
    Бит/(Пиксели*Кадры)                      : 0.270
    Размер потока                            : 13,0 Гбайт (75%)
    Библиотека кодирования                   : x264 core 152 r2851kMod ba24899
    Настройки программы                      : cabac=1 / ref=4 / deblock=1:-2:-2 / analyse=0x3:0x113 / me=umh / subme=11 / psy=1 / fade_compensate=0.00 / psy_rd=1.02:0.02 / mixed_ref=1 / me_range=48 / chroma_me=1 / trellis=2 / 8x8dct=1 / cqm=0 / deadzone=21,11 / fast_pskip=0 / chroma_qp_offset=-3 / threads=12 / lookahead_threads=2 / sliced_threads=0 / nr=0 / decimate=0 / interlaced=0 / bluray_compat=0 / constrained_intra=0 / bframes=9 / b_pyramid=2 / b_adapt=2 / b_bias=0 / direct=3 / weightb=1 / open_gop=0 / weightp=2 / keyint=240 / keyint_min=23 / scenecut=40 / intra_refresh=0 / rc_lookahead=40 / rc=2pass / mbtree=0 / bitrate=12871 / ratetol=1.0 / qcomp=0.60 / qpmin=0 / qpmax=39 / qpstep=4 / cplxblur=20.0 / qblur=0.5 / vbv_maxrate=50000 / vbv_bufsize=62500 / nal_hrd=none / filler=0 / ip_ratio=1.25 / pb_ratio=1.30 / aq=1:1.00
    Язык                                     : English
    Default                                  : Да
    Forced                                   : Нет
    Цветовой диапазон                        : Limited
    Основные цвета                           : BT.709
    Характеристики трансфера                 : BT.709
    Коэффициенты матрицы                     : BT.709

    Аудио #1
    Идентификатор                            : 2
    Формат                                   : AC-3
    Формат/Информация                        : Audio Coding 3
    Параметр Endianness формата              : Big
    Идентификатор кодека                     : A_AC3
    Продолжительность                        : 2 ч. 28 м.
    Вид битрейта                             : Постоянный
    Битрейт                                  : 384 Кбит/сек
    Каналы                                   : 6 каналов
    Расположение каналов                     : Front: L C R, Side: L R, LFE
    Частота                                  : 48,0 КГц
    Частота кадров                           : 31,250 кадров/сек (1536 SPF)
    Битовая глубина                          : 16 бит
    Метод сжатия                             : С потерями
    Размер потока                            : 409 Мбайт (2%)
    Заголовок                                : Дублированный
    Язык                                     : Russian
    Default                                  : Да
    Forced                                   : Нет

    Аудио #2
    Идентификатор                            : 3
    Формат                                   : AC-3
    Формат/Информация                        : Audio Coding 3
    Параметр Endianness формата              : Big
    Идентификатор кодека                     : A_AC3
    Продолжительность                        : 2 ч. 28 м.
    Вид битрейта                             : Постоянный
    Битрейт                                  : 448 Кбит/сек
    Каналы                                   : 6 каналов
    Расположение каналов                     : Front: L C R, Side: L R, LFE
    Частота                                  : 48,0 КГц
    Частота кадров                           : 31,250 кадров/сек (1536 SPF)
    Битовая глубина                          : 16 бит
    Метод сжатия                             : С потерями
    Размер потока                            : 477 Мбайт (3%)
    Заголовок                                : Дублированный (вставки многолоски на немецкую речь)
    Язык                                     : Russian
    Default                                  : Нет
    Forced                                   : Нет

    Аудио #3
    Идентификатор                            : 4
    Формат                                   : AC-3
    Формат/Информация                        : Audio Coding 3
    Параметр Endianness формата              : Big
    Идентификатор кодека                     : A_AC3
    Продолжительность                        : 2 ч. 28 м.
    Вид битрейта                             : Постоянный
    Битрейт                                  : 192 Кбит/сек
    Каналы                                   : 2 канала
    Расположение каналов                     : Front: L R
    Частота                                  : 48,0 КГц
    Частота кадров                           : 31,250 кадров/сек (1536 SPF)
    Битовая глубина                          : 16 бит
    Метод сжатия                             : С потерями
    Размер потока                            : 205 Мбайт (1%)
    Заголовок                                : Дублированный (SDI Мedia)
    Язык                                     : Russian
    Default                                  : Нет
    Forced                                   : Нет

    Аудио #4
    Идентификатор                            : 5
    Формат                                   : AC-3
    Формат/Информация                        : Audio Coding 3
    Параметр Endianness формата              : Big
    Идентификатор кодека                     : A_AC3
    Продолжительность                        : 2 ч. 28 м.
    Вид битрейта                             : Постоянный
    Битрейт                                  : 448 Кбит/сек
    Каналы                                   : 6 каналов
    Расположение каналов                     : Front: L C R, Side: L R, LFE
    Частота                                  : 48,0 КГц
    Частота кадров                           : 31,250 кадров/сек (1536 SPF)
    Битовая глубина                          : 16 бит
    Метод сжатия                             : С потерями
    Размер потока                            : 477 Мбайт (3%)
    Заголовок                                : Профессиональный многоголосый
    Язык                                     : Russian
    Default                                  : Нет
    Forced                                   : Нет

    Аудио #5
    Идентификатор                            : 6
    Формат                                   : AC-3
    Формат/Информация                        : Audio Coding 3
    Параметр Endianness формата              : Big
    Идентификатор кодека                     : A_AC3
    Продолжительность                        : 2 ч. 28 м.
    Вид битрейта                             : Постоянный
    Битрейт                                  : 192 Кбит/сек
    Каналы                                   : 2 канала
    Расположение каналов                     : Front: L R
    Частота                                  : 48,0 КГц
    Частота кадров                           : 31,250 кадров/сек (1536 SPF)
    Битовая глубина                          : 16 бит
    Метод сжатия                             : С потерями
    Размер потока                            : 205 Мбайт (1%)
    Заголовок                                : Профессиональный многоголосый (ОРТ)
    Язык                                     : Russian
    Default                                  : Нет
    Forced                                   : Нет

    Аудио #6
    Идентификатор                            : 7
    Формат                                   : AC-3
    Формат/Информация                        : Audio Coding 3
    Параметр Endianness формата              : Big
    Идентификатор кодека                     : A_AC3
    Продолжительность                        : 2 ч. 28 м.
    Вид битрейта                             : Постоянный
    Битрейт                                  : 448 Кбит/сек
    Каналы                                   : 6 каналов
    Расположение каналов                     : Front: L C R, Side: L R, LFE
    Частота                                  : 48,0 КГц
    Частота кадров                           : 31,250 кадров/сек (1536 SPF)
    Битовая глубина                          : 16 бит
    Метод сжатия                             : С потерями
    Размер потока                            : 477 Мбайт (3%)
    Заголовок                                : Авторский одноголосый (Яроцкий)
    Язык                                     : Russian
    Default                                  : Нет
    Forced                                   : Нет

    Аудио #7
    Идентификатор                            : 8
    Формат                                   : AC-3
    Формат/Информация                        : Audio Coding 3
    Параметр Endianness формата              : Big
    Идентификатор кодека                     : A_AC3
    Продолжительность                        : 2 ч. 28 м.
    Вид битрейта                             : Постоянный
    Битрейт                                  : 448 Кбит/сек
    Каналы                                   : 6 каналов
    Расположение каналов                     : Front: L C R, Side: L R, LFE
    Частота                                  : 48,0 КГц
    Частота кадров                           : 31,250 кадров/сек (1536 SPF)
    Битовая глубина                          : 16 бит
    Метод сжатия                             : С потерями
    Размер потока                            : 477 Мбайт (3%)
    Заголовок                                : Авторский одноголосый (А.Гаврилов)
    Язык                                     : Russian
    Default                                  : Нет
    Forced                                   : Нет

    Аудио #8
    Идентификатор                            : 9
    Формат                                   : AC-3
    Формат/Информация                        : Audio Coding 3
    Параметр Endianness формата              : Big
    Идентификатор кодека                     : A_AC3
    Продолжительность                        : 2 ч. 28 м.
    Вид битрейта                             : Постоянный
    Битрейт                                  : 448 Кбит/сек
    Каналы                                   : 6 каналов
    Расположение каналов                     : Front: L C R, Side: L R, LFE
    Частота                                  : 48,0 КГц
    Частота кадров                           : 31,250 кадров/сек (1536 SPF)
    Битовая глубина                          : 16 бит
    Метод сжатия                             : С потерями
    Размер потока                            : 477 Мбайт (3%)
    Заголовок                                : Авторский одноголосый (Ю.Живов)
    Язык                                     : Russian
    Default                                  : Нет
    Forced                                   : Нет

    Аудио #9
    Идентификатор                            : 10
    Формат                                   : AC-3
    Формат/Информация                        : Audio Coding 3
    Параметр Endianness формата              : Big
    Идентификатор кодека                     : A_AC3
    Продолжительность                        : 2 ч. 28 м.
    Вид битрейта                             : Постоянный
    Битрейт                                  : 448 Кбит/сек
    Каналы                                   : 6 каналов
    Расположение каналов                     : Front: L C R, Side: L R, LFE
    Частота                                  : 48,0 КГц
    Частота кадров                           : 31,250 кадров/сек (1536 SPF)
    Битовая глубина                          : 16 бит
    Метод сжатия                             : С потерями
    Размер потока                            : 477 Мбайт (3%)
    Заголовок                                : Профессиональный многоголосый
    Язык                                     : Ukrainian
    Default                                  : Нет
    Forced                                   : Нет

    Аудио #10
    Идентификатор                            : 11
    Формат                                   : AC-3
    Формат/Информация                        : Audio Coding 3
    Параметр Endianness формата              : Big
    Идентификатор кодека                     : A_AC3
    Продолжительность                        : 2 ч. 28 м.
    Вид битрейта                             : Постоянный
    Битрейт                                  : 448 Кбит/сек
    Каналы                                   : 6 каналов
    Расположение каналов                     : Front: L C R, Side: L R, LFE
    Частота                                  : 48,0 КГц
    Частота кадров                           : 31,250 кадров/сек (1536 SPF)
    Битовая глубина                          : 16 бит
    Метод сжатия                             : С потерями
    Размер потока                            : 477 Мбайт (3%)
    Заголовок                                : Оригинал
    Язык                                     : English
    Default                                  : Нет
    Forced                                   : Нет

    Текст #1
    Идентификатор                            : 12
    Формат                                   : UTF-8
    Идентификатор кодека                     : S_TEXT/UTF8
    Идентификатор кодека/Информация          : UTF-8 Plain Text
    Заголовок                                : форсированные
    Язык                                     : Russian
    Default                                  : Да
    Forced                                   : Нет

    Текст #2
    Идентификатор                            : 13
    Формат                                   : UTF-8
    Идентификатор кодека                     : S_TEXT/UTF8
    Идентификатор кодека/Информация          : UTF-8 Plain Text
    Заголовок                                : полные
    Язык                                     : Russian
    Default                                  : Нет
    Forced                                   : Нет

    Текст #3
    Идентификатор                            : 14
    Формат                                   : UTF-8
    Идентификатор кодека                     : S_TEXT/UTF8
    Идентификатор кодека/Информация          : UTF-8 Plain Text
    Заголовок                                : форсированные
    Язык                                     : Ukrainian
    Default                                  : Нет
    Forced                                   : Нет

    Текст #4
    Идентификатор                            : 15
    Формат                                   : UTF-8
    Идентификатор кодека                     : S_TEXT/UTF8
    Идентификатор кодека/Информация          : UTF-8 Plain Text
    Заголовок                                : полные
    Язык                                     : English
    Default                                  : Нет
    Forced                                   : Нет

    Меню
    00:00:00.000                             : en:Chapter 1
    00:05:23.114                             : en:Chapter 2
    00:10:04.478                             : en:Chapter 3
    00:14:24.738                             : en:Chapter 4
    00:20:28.060                             : en:Chapter 5
    00:26:55.238                             : en:Chapter 6
    00:31:10.785                             : en:Chapter 7
    00:39:07.678                             : en:Chapter 8
    00:47:15.874                             : en:Chapter 9
    00:53:22.365                             : en:Chapter 10
    00:58:10.487                             : en:Chapter 11
    01:03:48.241                             : en:Chapter 12
    01:10:53.958                             : en:Chapter 13
    01:18:09.309                             : en:Chapter 14
    01:22:06.004                             : en:Chapter 15
    01:29:51.594                             : en:Chapter 16
    01:38:18.058                             : en:Chapter 17
    01:43:38.962                             : en:Chapter 18
    01:50:10.770                             : en:Chapter 19
    01:56:17.512                             : en:Chapter 20
    02:01:22.441                             : en:Chapter 21
    02:08:48.178                             : en:Chapter 22
    02:15:23.365                             : en:Chapter 23
    02:21:30.607                             : en:Chapter 24

    Свернуть


    [img]http://korsar.tv/images/Banner-Korsar.gif[/img] [img]http://korsar.tv/images/VKontakte.gif[/img]
    Похожие раздачи Искать похожие
    Инструкция по скачиванию
     1  Качаем uTorrent версии 2.0 и выше
     2  После установки, жмем выше под постером на ссылку Скачать [MediaGet] или Скачать .torrent
     3  Открываем скачанный файл через соответствующий клиент: MediaGet или uTorrent
     4  Ждем пока подключатся участники
     5  Качаем
    Комментарии о  Пианист / The Pianist | BDRip 1080p 
    Ближайшее в кино
    Вверх