• Игры для PS4
  • Игры для PS3
  • Игры для XBOX360
  • Игры для PC
  • Игры для PS2
  • Игры для PSP
  • Для телефонов
  • Музыка
  • Книги / Журналы
  • Обои
  • Опрос
    Откуда Вы о нас узнали?
      0
    • От знакомых2,1,false,300,full
    • Из социальных сетей2,2,false,300,full
    • Из поисковых систем2,3,false,300,full
    • Другое2,4,false,300,full
    Статистика
    Всего онлайн -
    Гостей -
    Пользователей -
    Короли трекера
    Благодарности () Закрыть
    Информация о фильме
    Название: Вечер с Беверли Лафф Линн
    Оригинальное название: An Evening with Beverly Luff Linn
    Год выпуска: 2018
    Жанр:  Комедия, криминал
    Режиссер: Джим Хоскин
    В ролях: Обри Плаза, Джемейн Клемент, Эмиль Хирш, Крэйг Робинсон, Мэтт Берри, Мария Бэмфорд, Майкл Коэн, Зак Черри, Скай Элобар, Джакоб Уайсоки

    О фильме :
    Главная героиня, по имени Лулу Дэнжер, абсолютно недовольна своей жизнью. На работе она постоянно напряжена и с мужем, некогда любимым до безумия, происходит разлад. Все поменялось в один момент, когда она увидела рекламу нового интересного телешоу под названием «Вечер с Беверли Лафф Линн». Телеведущей Беверли кажется знаком Лулу, она вспоминает о том, что раньше их связывало в далеком прошлом до замужества. Девушка решительно настроена встретиться с этим человеком, даже бросить мужа и работу, но главное для нее, провести незабываемую ночь с Беверли.



    Страна: Великобритания, США
    Студия: Park Pictures, Wigwam Films, Rook Films
    Продолжительность: 01:47:37
    Перевод: Профессиональный (многоголосый, закадровый) | HDRezka Studio

    Файл
    Формат: MKV
    Качество: HDRip-AVC
    Видео: MPEG-4 AVC, 768x416, - 892 Кбит/с
    Аудио: [img]http://i93.fastpic.ru/big/2017/0727/c0/4b72f0369a3393219ed5935e91fc15c0.gif[/img] AAC-HE, 2 ch, - 76 Кбит/с
    Субтитры: Нет

    MI
    Общее
    Уникальный идентификатор : 202762235831406628122137760503040844586 (0x988A960E710C642C8812F275ABFC232A)
    Полное имя : D:MOVIESAn Evening with Beverly Luff Linn.2018.HDRip-AVC.ExKinoRay.mkv
    Формат : Matroska
    Версия формата : Version 4 / Version 2
    Размер файла : 745 Мбайт
    Продолжительность : 1 ч. 47 м.
    Общий поток : 968 Кбит/сек
    Дата кодирования : UTC 2018-12-02 17:40:19
    Программа кодирования : mkvmerge v15.0.0 ("Duel with the Devil") 64-bit
    Библиотека кодирования : libebml v1.3.5 + libmatroska v1.4.5

    Видео
    Идентификатор : 1
    Формат : AVC
    Формат/Информация : Advanced Video Codec
    Профиль формата : High@L4.1
    Параметр CABAC формата : Да
    Параметр RefFrames формата : 12 кадров
    Идентификатор кодека : V_MPEG4/ISO/AVC
    Продолжительность : 1 ч. 47 м.
    Битрейт : 892 Кбит/сек
    Ширина : 768 пикселей
    Высота : 416 пикселей
    Соотношение сторон : 1,85:1
    Режим частоты кадров : Постоянный
    Частота кадров : 24,000 кадра/сек
    Цветовое пространство : YUV
    Субдискретизация насыщенности : 4:2:0
    Битовая глубина : 8 бит
    Тип развёртки : Прогрессивная
    Бит/(Пиксели*Кадры) : 0.116
    Размер потока : 685 Мбайт (92%)
    Библиотека кодирования : x264 core 152 r2851kMod ba24899
    Настройки программы : cabac=1 / ref=12 / deblock=1:-3:-2 / analyse=0x3:0x133 / me=umh / subme=10 / psy=1 / fade_compensate=0.00 / psy_rd=1.00:0.17 / mixed_ref=1 / me_range=32 / chroma_me=1 / trellis=2 / 8x8dct=1 / cqm=0 / deadzone=21,11 / fast_pskip=0 / chroma_qp_offset=-3 / threads=6 / lookahead_threads=1 / sliced_threads=0 / nr=0 / decimate=0 / interlaced=0 / bluray_compat=0 / constrained_intra=0 / bframes=11 / b_pyramid=2 / b_adapt=2 / b_bias=0 / direct=3 / weightb=1 / open_gop=0 / weightp=2 / keyint=240 / keyint_min=23 / scenecut=40 / intra_refresh=0 / rc_lookahead=40 / rc=2pass / mbtree=1 / bitrate=892 / ratetol=1.0 / qcomp=0.60 / qpmin=0 / qpmax=69 / qpstep=4 / cplxblur=20.0 / qblur=0.5 / ip_ratio=1.40 / aq=3:1.00
    Default : Да
    Forced : Нет

    Аудио
    Идентификатор : 2
    Формат : AAC
    Формат/Информация : Advanced Audio Codec
    Профиль формата : HE-AAC / LC
    Идентификатор кодека : A_AAC
    Продолжительность : 1 ч. 47 м.
    Битрейт : 76,0 Кбит/сек
    Каналы : 2 канала
    Расположение каналов : Front: L R
    Частота : 48,0 КГц / 24,0 КГц
    Частота кадров : 23,438 кадра/сек (1024 SPF)
    Метод сжатия : С потерями
    Задержка видео : 31 мс.
    Размер потока : 58,5 Мбайт (8%)
    Язык : Russian
    Default : Да
    Forced : Нет

    Меню
    00:00:00.000 : :00:00:00.000
    00:06:38.833 : :00:06:38.833
    00:23:31.500 : :00:23:31.500
    00:38:49.541 : :00:38:49.541
    00:52:40.958 : :00:52:40.958
    01:08:14.916 : :01:08:14.916
    01:23:47.875 : :01:23:47.875
    01:37:41.833 : :01:37:41.833
    Свернуть


    Скриншоты

    [screen]http://img14.lostpic.net/2018/12/02/8561a2ee9ce2da89f07888af63a69ae6.png[/screen][screen]http://img14.lostpic.net/2018/12/02/8561a2ee9ce2da89f07888af63a69ae6.png[/screen][screen]http://img14.lostpic.net/2018/12/02/41afd51973aa20ebd2112a99dddb1418.png[/screen][screen]http://img14.lostpic.net/2018/12/02/a4e67487497e9547fc4f6418e6870c9f.png[/screen][screen]http://img14.lostpic.net/2018/12/02/ef9ceafa33563a8528fd5095d5553b74.png[/screen][screen]http://img14.lostpic.net/2018/12/02/160ef7a367be00febca8098b2729dd3e.png[/screen][screen]http://img14.lostpic.net/2018/12/02/3e72dc18c22fc8ab3de5d88b7f7951a6.png[/screen][screen]http://img14.lostpic.net/2018/12/02/d09d169b479fab9ff056242c0e3992a0.png[/screen]
    Свернуть


    [img]http://i101.fastpic.ru/big/2018/0205/db/2bb5d8d6418a0fdc34277325cb111edb.gif[/img][img]http://i92.fastpic.ru/big/2017/0727/ee/d5deb5b73669b4c45974c6b5d6c309ee.gif[/img] [img]http://img12.lostpic.net/2018/03/09/13af6981458d1d0b6a9d5e5286e0688e.gif[/img][img]http://i92.fastpic.ru/big/2017/0727/34/cf9a17c70dfe7fe87e42af3f9f29e734.gif[/img]
    Инструкция по скачиванию
     1  Качаем uTorrent версии 2.0 и выше
     2  После установки, жмем выше под постером на ссылку Скачать [MediaGet] или Скачать .torrent
     3  Открываем скачанный файл через соответствующий клиент: MediaGet или uTorrent
     4  Ждем пока подключатся участники
     5  Качаем
    Комментарии о  Вечер с Беверли Лафф Линн / An Evening with Beverly Luff Linn | HDRip-AVC 
    Ближайшее в кино
    Вверх