• Игры для PS4
  • Игры для PS3
  • Игры для XBOX360
  • Игры для PC
  • Игры для PS2
  • Игры для PSP
  • Для телефонов
  • Музыка
  • Книги / Журналы
  • Обои
  • Опрос
    Откуда Вы о нас узнали?
      0
    • От знакомых2,1,false,300,full
    • Из социальных сетей2,2,false,300,full
    • Из поисковых систем2,3,false,300,full
    • Другое2,4,false,300,full
    Статистика
    Всего онлайн -
    Гостей -
    Пользователей -
    Короли трекера
    Благодарности () Закрыть
    Информация о фильме
    Название: Багровая мята
    Оригинальное название: Peppermint
    Год выхода: 2018
    Жанр: Боевик, триллер, драма
    Режиссер: Пьер Морель
    В ролях: Дженнифер Гарнер, Джон Галлахер мл., Джон Ортис, Хуан Пабло Раба, Энни Айлонзех, Джефф Хефнер, Кэйли Флеминг, Эдди Шин, Метод Мэн, Тайсон Риттер



    О фильме: Когда система закрывает глаза на убийство ее семьи, она решает вершить справедливость сама: очистить город от преступников и продажных полицейских, чтобы отомстить за любимых. Ведь месть - это блюдо, которое подают холодным. Холодным, как мороженое со вкусом мяты, которое так любила ее единственная дочь.

    Страна: США, Гонконг
    Студия: Huayi Brothers, Lakeshore Entertainment, STXfilms
    Продолжительность: 01:41:37
    Перевод: Дублированный | iTunes

    Качество: WEB-DL 1080p
    Видео: MPEG-4 AVC, 1912x800, 4569 Кbit/s, 23.976 fps
    Звук:
    Аудио #01: 48 kHz, AC3, 5.1, 384 Kbps | iTunes | RUS |[img]http://img11.lostpic.net/2018/08/13/7c2ebc4025c59bfa2d99e99b51a513dc.png[/img]
    Аудио #02: 48 kHz, AC3, 5.1, 384 Kbps | Оригинал |  ENG |[img]http://img11.lostpic.net/2018/08/13/9611f09865bbb093dacbc8ec792c4ceb.png[/img]
    Субтитры: Английские

    Скриншоты
    [screen]http://img14.lostpic.net/2018/12/02/3d2028d11fabe74d0fc154b3577aec44.png[/screen][screen]http://img14.lostpic.net/2018/12/02/dd1444d932b266bd66f80888aa03a282.png[/screen][screen]http://img14.lostpic.net/2018/12/02/e4169ba68a6da5b769de32f8e7aca86b.png[/screen][screen]http://img14.lostpic.net/2018/12/02/1c51d9dfe620e97fe788c155a9fc1fd5.png[/screen][screen]http://img14.lostpic.net/2018/12/02/1555582d0f3aeb20a2ae4d6c04437f5d.png[/screen]Свернуть


    MI
    General
    Unique ID                   : 9173154944739037563821036496875505400 (0x6E6AF7503D91262F83981D618F146F8)
    Complete name               : D:Video111Peppermint.2018.WEB-DL.1080p.selezen.mkv
    Format                      : Matroska
    Format version              : Version 4
    File size                   : 3.79 GiB
    Duration                    : 1 h 41 min
    Overall bit rate            : 5 339 kb/s
    Movie name                  : Peppermint 2018 from селезень
    Encoded date                : UTC 2018-12-02 20:17:56
    Writing application         : mkvmerge v29.0.0 ("Like It Or Not") 64-bit
    Writing library             : libebml v1.3.6 + libmatroska v1.4.9

    Video
    ID                          : 1
    Format                      : AVC
    Format/Info                 : Advanced Video Codec
    Format profile              : High@L4
    Format settings             : CABAC / 5 Ref Frames
    Format settings, CABAC      : Yes
    Format settings, ReFrames   : 5 frames
    Codec ID                    : V_MPEG4/ISO/AVC
    Duration                    : 1 h 41 min
    Bit rate                    : 4 569 kb/s
    Width                       : 1 912 pixels
    Height                      : 800 pixels
    Display aspect ratio        : 2.40:1
    Frame rate mode             : Constant
    Frame rate                  : 23.976 (23976/1000) FPS
    Color space                 : YUV
    Chroma subsampling          : 4:2:0
    Bit depth                   : 8 bits
    Scan type                   : Progressive
    Bits/(Pixel*Frame)          : 0.125
    Stream size                 : 3.24 GiB (86%)
    Language                    : English
    Default                     : Yes
    Forced                      : No
    Color range                 : Limited
    Color primaries             : BT.709
    Transfer characteristics    : BT.709
    Matrix coefficients         : BT.709

    Audio #1
    ID                          : 2
    Format                      : AC-3
    Format/Info                 : Audio Coding 3
    Commercial name             : Dolby Digital
    Codec ID                    : A_AC3
    Duration                    : 1 h 41 min
    Bit rate mode               : Constant
    Bit rate                    : 384 kb/s
    Channel(s)                  : 6 channels
    Channel layout              : L R C LFE Ls Rs
    Sampling rate               : 48.0 kHz
    Frame rate                  : 31.250 FPS (1536 SPF)
    Bit depth                   : 16 bits
    Compression mode            : Lossy
    Stream size                 : 279 MiB (7%)
    Title                       : iTunes
    Language                    : Russian
    Service kind                : Complete Main
    Default                     : Yes
    Forced                      : Yes

    Audio #2
    ID                          : 3
    Format                      : AC-3
    Format/Info                 : Audio Coding 3
    Commercial name             : Dolby Digital
    Codec ID                    : A_AC3
    Duration                    : 1 h 41 min
    Bit rate mode               : Constant
    Bit rate                    : 384 kb/s
    Channel(s)                  : 6 channels
    Channel layout              : L R C LFE Ls Rs
    Sampling rate               : 48.0 kHz
    Frame rate                  : 31.250 FPS (1536 SPF)
    Bit depth                   : 16 bits
    Compression mode            : Lossy
    Stream size                 : 279 MiB (7%)
    Title                       : Original
    Language                    : English
    Service kind                : Complete Main
    Default                     : No
    Forced                      : No

    Text
    ID                          : 4
    Format                      : UTF-8
    Codec ID                    : S_TEXT/UTF8
    Codec ID/Info               : UTF-8 Plain Text
    Duration                    : 1 h 40 min
    Bit rate                    : 52 b/s
    Count of elements           : 1305
    Stream size                 : 38.9 KiB (0%)
    Title                       : SDH
    Language                    : English
    Default                     : No
    Forced                      : No

    Menu
    00:00:00.000                : en:1
    00:11:48.000                : en:2
    00:22:54.000                : en:3
    00:37:40.000                : en:4
    00:52:25.000                : en:5
    01:02:43.000                : en:6
    01:14:12.000                : en:7
    01:25:05.000                : en:8
    01:34:40.000                : en:9Свернуть


    [img]http://lostpix.com/img/2017-03/22/pa3kns75lpl0e564ik1il8ow9.gif[/img]
    Похожие раздачи Искать похожие
    Инструкция по скачиванию
     1  Качаем uTorrent версии 2.0 и выше
     2  После установки, жмем выше под постером на ссылку Скачать [MediaGet] или Скачать .torrent
     3  Открываем скачанный файл через соответствующий клиент: MediaGet или uTorrent
     4  Ждем пока подключатся участники
     5  Качаем
    Комментарии о  Багровая мята / Peppermint | WEB-DL 1080p 
    Ближайшее в кино
    Вверх