• Игры для PS4
  • Игры для PS3
  • Игры для XBOX360
  • Игры для PC
  • Игры для PS2
  • Игры для PSP
  • Для телефонов
  • Музыка
  • Книги / Журналы
  • Обои
  • Опрос
    Откуда Вы о нас узнали?
      0
    • От знакомых2,1,false,300,full
    • Из социальных сетей2,2,false,300,full
    • Из поисковых систем2,3,false,300,full
    • Другое2,4,false,300,full
    Статистика
    Всего онлайн -
    Гостей -
    Пользователей -
    Короли трекера
    Благодарности () Закрыть
    Информация о фильме
    Название: Азартные игры
    Оригинальное название: Reindeer Games
    Год выхода: 2000
    Жанр:  Боевик, триллер, драма, криминал
    Режиссер: Джон Франкенхаймер
    В ролях: Бен Аффлек, Шарлиз Терон, Гэри Синиз, Деннис Фарина, Джеймс Фрейн, Донал Лог, Дэнни Трехо, Айзек Хейз, Гордон Тутусис, Дана Стаблфилд

    О фильме :
    Ловушки расставлены. Для дерзкого ограбления банде головорезов нужен некий Ник, знакомый с охранной системой процветающего казино. Вскоре он должен выйти из тюрьмы. В качестве приманки на встречу ему посылают красавицу Эшли, которая вела с ним заочную романтическую переписку. Ничего не подозревающий друг Ника - Руди решает выдать себя за него, чтобы познакомиться с загадочной девушкой. И теперь эта азартная игра может стоить ему жизни...



    Страна: США
    Производство: Dimension Films, Marty Katz Productions, Cinema Production Services Inc.
    Продолжительность: 01:44:16
    Перевод: Профессиональный (полное дублирование)

    Файл
    Формат: MKV
    Качество: BDRip-AVC (BDRemux 1080p)
    Видео: MPEG-4 AVC, 768x432, - 923 Кбит/с
    Аудио: [img]http://i93.fastpic.ru/big/2017/0727/c0/4b72f0369a3393219ed5935e91fc15c0.gif[/img] AAC-HE, 2 ch, - 76 Кбит/с
    Субтитры: Русские, английские

    MI
    Общее
    Уникальный идентификатор : 174778919152072539078693153009559134465 (0x837D3206037F76958073C184E11BE101)
    Полное имя : D:MOVIESReindeer Games.2000.BDRip-AVC.ExKinoRay.mkv
    Формат : Matroska
    Версия формата : Version 4 / Version 2
    Размер файла : 746 Мбайт
    Продолжительность : 1 ч. 44 м.
    Общий поток : 1000 Кбит/сек
    Дата кодирования : UTC 2018-12-03 04:09:10
    Программа кодирования : mkvmerge v15.0.0 ("Duel with the Devil") 64-bit
    Библиотека кодирования : libebml v1.3.5 + libmatroska v1.4.5
    Обложка : Yes
    Attachments : cover.jpg

    Видео
    Идентификатор : 1
    Формат : AVC
    Формат/Информация : Advanced Video Codec
    Профиль формата : High@L4.1
    Параметр CABAC формата : Да
    Параметр RefFrames формата : 12 кадров
    Идентификатор кодека : V_MPEG4/ISO/AVC
    Продолжительность : 1 ч. 44 м.
    Битрейт : 923 Кбит/сек
    Ширина : 768 пикселей
    Высота : 432 пикселя
    Соотношение сторон : 16:9
    Режим частоты кадров : Постоянный
    Частота кадров : 23,976 (24000/1001) кадра/сек
    Цветовое пространство : YUV
    Субдискретизация насыщенности : 4:2:0
    Битовая глубина : 8 бит
    Тип развёртки : Прогрессивная
    Бит/(Пиксели*Кадры) : 0.116
    Размер потока : 688 Мбайт (92%)
    Библиотека кодирования : x264 core 152 r2851kMod ba24899
    Настройки программы : cabac=1 / ref=12 / deblock=1:-2:-2 / analyse=0x3:0x133 / me=umh / subme=10 / psy=1 / fade_compensate=0.00 / psy_rd=1.00:0.15 / mixed_ref=1 / me_range=32 / chroma_me=1 / trellis=2 / 8x8dct=1 / cqm=0 / deadzone=21,11 / fast_pskip=0 / chroma_qp_offset=-3 / threads=6 / lookahead_threads=1 / sliced_threads=0 / nr=0 / decimate=0 / interlaced=0 / bluray_compat=0 / constrained_intra=0 / bframes=11 / b_pyramid=2 / b_adapt=2 / b_bias=0 / direct=3 / weightb=1 / open_gop=0 / weightp=2 / keyint=240 / keyint_min=23 / scenecut=40 / intra_refresh=0 / rc_lookahead=40 / rc=2pass / mbtree=1 / bitrate=923 / ratetol=1.0 / qcomp=0.60 / qpmin=0 / qpmax=69 / qpstep=4 / cplxblur=20.0 / qblur=0.5 / ip_ratio=1.40 / aq=3:1.00
    Default : Да
    Forced : Нет

    Аудио
    Идентификатор : 2
    Формат : AAC
    Формат/Информация : Advanced Audio Codec
    Профиль формата : HE-AAC / LC
    Идентификатор кодека : A_AAC
    Продолжительность : 1 ч. 44 м.
    Битрейт : 76,0 Кбит/сек
    Каналы : 2 канала
    Расположение каналов : Front: L R
    Частота : 48,0 КГц / 24,0 КГц
    Частота кадров : 23,438 кадра/сек (1024 SPF)
    Метод сжатия : С потерями
    Задержка видео : 31 мс.
    Размер потока : 56,7 Мбайт (8%)
    Default : Да
    Forced : Нет

    Текст #1
    Идентификатор : 3
    Формат : UTF-8
    Идентификатор кодека : S_TEXT/UTF8
    Идентификатор кодека/Информация : UTF-8 Plain Text
    Продолжительность : 1 ч. 37 м.
    Битрейт : 84 бит/сек
    ElementCount : 909
    Размер потока : 60,7 Кбайт (0%)
    Язык : Russian
    Default : Нет
    Forced : Нет

    Текст #2
    Идентификатор : 4
    Формат : UTF-8
    Идентификатор кодека : S_TEXT/UTF8
    Идентификатор кодека/Информация : UTF-8 Plain Text
    Продолжительность : 1 ч. 36 м.
    Битрейт : 60 бит/сек
    ElementCount : 1185
    Размер потока : 43,0 Кбайт (0%)
    Язык : English
    Default : Нет
    Forced : Нет

    Меню
    00:00:00.000 : en:Chapter 00
    00:06:58.251 : en:Chapter 01
    00:12:03.264 : en:Chapter 02
    00:20:23.972 : en:Chapter 03
    00:26:48.231 : en:Chapter 04
    00:34:54.967 : en:Chapter 05
    00:41:33.114 : en:Chapter 06
    00:48:50.218 : en:Chapter 07
    00:55:36.624 : en:Chapter 08
    01:02:19.360 : en:Chapter 09
    01:08:54.130 : en:Chapter 10
    01:15:28.607 : en:Chapter 11
    01:21:44.441 : en:Chapter 12
    01:27:44.676 : en:Chapter 13
    01:36:21.984 : en:Chapter 14
    01:38:02.877 : en:Chapter 15
    Свернуть


    Скриншоты

    [screen]http://img14.lostpic.net/2018/12/03/4167721820105f9792a5235b8931e82f.png[/screen][screen]http://img14.lostpic.net/2018/12/03/4467e0782b22f67c0ef6d3e06d02f3c3.png[/screen][screen]http://img14.lostpic.net/2018/12/03/3759650b24879b30d0365df214b363a7.png[/screen][screen]http://img14.lostpic.net/2018/12/03/f7d51676e022be06c2202a2041f8f772.png[/screen][screen]http://img14.lostpic.net/2018/12/03/ff776557f7db93315bfb0a33463c949f.png[/screen][screen]http://img14.lostpic.net/2018/12/03/b87aa26bf834d6e5976b5c385ddee077.png[/screen][screen]http://img14.lostpic.net/2018/12/03/35299fd0071669e4e9fcc46c358a38b9.png[/screen][screen]http://img14.lostpic.net/2018/12/03/759b67344928b402bb22d82f4837086b.png[/screen]
    Свернуть


    [img]http://i101.fastpic.ru/big/2018/0205/db/2bb5d8d6418a0fdc34277325cb111edb.gif[/img][img]http://i92.fastpic.ru/big/2017/0727/ee/d5deb5b73669b4c45974c6b5d6c309ee.gif[/img] [img]http://img12.lostpic.net/2018/03/09/13af6981458d1d0b6a9d5e5286e0688e.gif[/img][img]http://i92.fastpic.ru/big/2017/0727/34/cf9a17c70dfe7fe87e42af3f9f29e734.gif[/img]
    Похожие раздачи Искать похожие
    Инструкция по скачиванию
     1  Качаем uTorrent версии 2.0 и выше
     2  После установки, жмем выше под постером на ссылку Скачать [MediaGet] или Скачать .torrent
     3  Открываем скачанный файл через соответствующий клиент: MediaGet или uTorrent
     4  Ждем пока подключатся участники
     5  Качаем
    Комментарии о  Азартные игры / Reindeer Games | BDRip-AVC 
    Ближайшее в кино
    Вверх